<?xml version="1.0" standalone="no"?>
<!DOCTYPE svg PUBLIC "-//W3C//DTD SVG 1.1//EN" "http://www.w3.org/Graphics/SVG/1.1/DTD/svg11.dtd" >
<svg xmlns="http://www.w3.org/2000/svg" xmlns:xlink="http://www.w3.org/1999/xlink" version="1.1">
<metadata>
Created by FontForge 20150318 at Wed Jul  1 21:32:41 2015
 By uniteet7
Copyright (c) 2011 Linotype Corp., www.linotype.com. All rights reserved. This font software may not be reproduced, modified, disclosed or transferred without the express written approval of Linotype Corp. Shilia W23 is a trademark of Linotype Corp. and may be registered in certain jurisdictions in the name of Linotype Corp. or its licensee Linotype GmbH. This typeface is original artwork of Mamoun Sakkal. The design may be protected in certain jurisdictions.
</metadata>
<defs>
<font id="Shilialight" horiz-adv-x="1007" >
  <font-face 
    font-family="Shilialight"
    font-weight="300"
    font-stretch="normal"
    units-per-em="1000"
    panose-1="2 11 4 3 3 2 2 2 2 3"
    ascent="723"
    descent="-277"
    x-height="505"
    cap-height="723"
    bbox="-189 -516 2169 1000"
    underline-thickness="50"
    underline-position="-50"
    unicode-range="U+0020-FEFC"
  />
<missing-glyph horiz-adv-x="512" 
d="M222 117v67h56v-67h-56zM225 234l-2 17q0 55 13 81t46 59q32 31 41 47.5t9 35.5q0 36 -22.5 60.5t-53.5 24.5t-53.5 -22t-28.5 -73l-50 8q7 71 44 104t91 33q53 0 88.5 -36t35.5 -95q0 -32 -12.5 -58.5t-50.5 -61.5q-37 -33 -43 -52t-6 -72h-46zM462 50v617h-412v-617
h412zM512 718v-718h-512v718h512z" />
    <glyph glyph-name="uniFEF5" unicode="&#xfedf;&#xfe82;" horiz-adv-x="458" arabic-form="isolated" 
d="M428 204q0 -45 -13 -82.5t-36 -64.5t-57.5 -42t-76.5 -15h-161v58h161q61 0 93.5 41.5t32.5 104.5v519h57v-519zM145 138v489h55v-489h-55zM276 677h-79q-30 0 -47 4.5t-28 23.5l-46 -31v44l62 35q10 -26 22 -32.5t41 -6.5h75v-37z" />
    <glyph glyph-name="uniFEF6" unicode="&#xfee0;&#xfe82;" horiz-adv-x="493" arabic-form="final" 
d="M493 0q-32 0 -60.5 22.5t-37.5 67.5h-1q-23 -47 -60.5 -68.5t-88.5 -21.5h-161v58h161q61 0 93.5 41.5t32.5 104.5v519h57v-568q0 -43 16.5 -70t48.5 -27v-58zM145 138v489h55v-489h-55zM276 677h-79q-30 0 -47 4.5t-28 23.5l-46 -31v44l62 35q10 -26 22 -32.5t41 -6.5
h75v-37z" />
    <glyph glyph-name="uniFEF7" unicode="&#xfedf;&#xfe84;" horiz-adv-x="458" arabic-form="isolated" 
d="M428 204q0 -45 -13 -82.5t-36 -64.5t-57.5 -42t-76.5 -15h-161v58h161q61 0 93.5 41.5t32.5 104.5v519h57v-519zM145 138v489h55v-489h-55zM107 680v74q0 43 26.5 72t68.5 29h36v-37h-36q-25 0 -42 -18.5t-17 -45.5v-36h95v-38h-131z" />
    <glyph glyph-name="uniFEF8" unicode="&#xfee0;&#xfe84;" horiz-adv-x="493" arabic-form="final" 
d="M493 0q-32 0 -60.5 22.5t-37.5 67.5h-1q-23 -47 -60.5 -68.5t-88.5 -21.5h-161v58h161q61 0 93.5 41.5t32.5 104.5v519h57v-568q0 -43 16.5 -70t48.5 -27v-58zM145 138v489h55v-489h-55zM107 680v74q0 43 26.5 72t68.5 29h36v-37h-36q-25 0 -42 -18.5t-17 -45.5v-36h95
v-38h-131z" />
    <glyph glyph-name="uniFEF9" unicode="&#xfedf;&#xfe88;" horiz-adv-x="458" arabic-form="isolated" 
d="M428 204q0 -45 -13 -82.5t-36 -64.5t-57.5 -42t-76.5 -15h-161v58h161q61 0 93.5 41.5t32.5 104.5v519h57v-519zM145 138v585h55v-585h-55zM108 -242v74q0 43 26 72t68 29h36v-37h-36q-25 0 -42 -18.5t-17 -45.5v-36h95v-38h-130z" />
    <glyph glyph-name="uniFEFA" unicode="&#xfee0;&#xfe88;" horiz-adv-x="493" arabic-form="final" 
d="M493 0q-32 0 -60.5 22.5t-37.5 67.5h-1q-23 -47 -60.5 -68.5t-88.5 -21.5h-161v58h161q61 0 93.5 41.5t32.5 104.5v519h57v-568q0 -43 16.5 -70t48.5 -27v-58zM145 138v585h55v-585h-55zM108 -242v74q0 43 26 72t68 29h36v-37h-36q-25 0 -42 -18.5t-17 -45.5v-36h95v-38
h-130z" />
    <glyph glyph-name="uniFEFB" unicode="&#xfedf;&#xfe8e;" horiz-adv-x="458" arabic-form="isolated" 
d="M428 204q0 -45 -13 -82.5t-36 -64.5t-57.5 -42t-76.5 -15h-161v58h161q61 0 93.5 41.5t32.5 104.5v519h57v-519zM145 138v585h55v-585h-55z" />
    <glyph glyph-name="uniFEFC" unicode="&#xfee0;&#xfe8e;" horiz-adv-x="493" arabic-form="final" 
d="M493 0q-32 0 -60.5 22.5t-37.5 67.5h-1q-23 -47 -60.5 -68.5t-88.5 -21.5h-161v58h161q61 0 93.5 41.5t32.5 104.5v519h57v-568q0 -43 16.5 -70t48.5 -27v-58zM145 138v585h55v-585h-55z" />
    <glyph glyph-name="uniFEDF_uniFB51.rlig" unicode="&#xfedf;&#xfb51;" horiz-adv-x="458" 
d="M428 204q0 -45 -13 -82.5t-36 -64.5t-57.5 -42t-76.5 -15h-161v58h161q61 0 93.5 41.5t32.5 104.5v519h57v-519zM145 138v489h55v-489h-55zM142 724v71h29v-12q0 -8 -3 -18l1 -2l6 10q12 19 25 26.5t27 7.5q25 0 39 -14.5t14 -48.5v-49h-145q-17 0 -23 2t-14 12l-37 -19
v33l47 26h2q3 -13 10 -19t17 -6h5zM248 740q0 12 -3 25t-16 13q-9 0 -16.5 -4t-18.5 -18l-23 -32h77v16z" />
    <glyph glyph-name="uniFEE0_uniFB51.rlig" unicode="&#xfee0;&#xfb51;" horiz-adv-x="493" 
d="M493 0q-32 0 -60.5 22.5t-37.5 67.5h-1q-23 -47 -60.5 -68.5t-88.5 -21.5h-161v58h161q61 0 93.5 41.5t32.5 104.5v519h57v-568q0 -43 16.5 -70t48.5 -27v-58zM145 138v489h55v-489h-55zM142 724v71h29v-12q0 -8 -3 -18l1 -2l6 10q12 19 25 26.5t27 7.5q25 0 39 -14.5
t14 -48.5v-49h-145q-17 0 -23 2t-14 12l-37 -19v33l47 26h2q3 -13 10 -19t17 -6h5zM248 740q0 12 -3 25t-16 13q-9 0 -16.5 -4t-18.5 -18l-23 -32h77v16z" />
    <glyph glyph-name="uniFE8C_uniFEAE.liga" unicode="&#xfe8c;&#xfeae;" horiz-adv-x="536" 
d="M344 179q30 0 51 25.5t21 62.5v160h57v-270q0 -46 12.5 -72.5t50.5 -26.5v-58q-20 0 -40.5 4.5t-37 18.5t-27.5 38.5t-12 66.5l-2 29h-2q-15 -23 -33.5 -31.5t-36.5 -8.5t-38 8.5t-30 31.5h-3v-191q0 -56 -18 -102.5t-52.5 -79.5t-86 -51.5t-117.5 -18.5v52q54 0 95 15
t68 42t41.5 64t14.5 77v332h55v-38q0 -13 5 -27.5t14 -25.5t22 -18.5t29 -7.5zM382 533v74q0 43 26.5 72t68.5 29h36v-37h-36q-25 0 -42 -18.5t-17 -45.5v-36h95v-38h-131z" />
    <glyph glyph-name="uniFE92_uniFEAE.liga" unicode="&#xfe92;&#xfeae;" horiz-adv-x="536" 
d="M344 179q30 0 51 25.5t21 62.5v160h57v-270q0 -46 12.5 -72.5t50.5 -26.5v-58q-20 0 -40.5 4.5t-37 18.5t-27.5 38.5t-12 66.5l-2 29h-2q-15 -23 -33.5 -31.5t-36.5 -8.5t-38 8.5t-30 31.5h-3v-191q0 -56 -18 -102.5t-52.5 -79.5t-86 -51.5t-117.5 -18.5v52q54 0 95 15
t68 42t41.5 64t14.5 77v332h55v-38q0 -13 5 -27.5t14 -25.5t22 -18.5t29 -7.5zM417 -152q0 44 43 44t43 -44q0 -43 -43 -43t-43 43z" />
    <glyph glyph-name="uniFE98_uniFEAE.liga" unicode="&#xfe98;&#xfeae;" horiz-adv-x="536" 
d="M344 179q30 0 51 25.5t21 62.5v160h57v-270q0 -46 12.5 -72.5t50.5 -26.5v-58q-20 0 -40.5 4.5t-37 18.5t-27.5 38.5t-12 66.5l-2 29h-2q-15 -23 -33.5 -31.5t-36.5 -8.5t-38 8.5t-30 31.5h-3v-191q0 -56 -18 -102.5t-52.5 -79.5t-86 -51.5t-117.5 -18.5v52q54 0 95 15
t68 42t41.5 64t14.5 77v332h55v-38q0 -13 5 -27.5t14 -25.5t22 -18.5t29 -7.5zM349 615q0 41 41 41q18 0 28.5 -10.5t10.5 -30.5t-10.5 -29.5t-28.5 -9.5q-20 0 -30.5 9t-10.5 30zM451 615q0 20 10.5 30.5t28.5 10.5q41 0 41 -41q0 -21 -10.5 -30t-30.5 -9q-18 0 -28.5 9.5
t-10.5 29.5z" />
    <glyph glyph-name="uniFE9C_uniFEAE.liga" unicode="&#xfe9c;&#xfeae;" horiz-adv-x="536" 
d="M344 179q30 0 51 25.5t21 62.5v160h57v-270q0 -46 12.5 -72.5t50.5 -26.5v-58q-20 0 -40.5 4.5t-37 18.5t-27.5 38.5t-12 66.5l-2 29h-2q-15 -23 -33.5 -31.5t-36.5 -8.5t-38 8.5t-30 31.5h-3v-191q0 -56 -18 -102.5t-52.5 -79.5t-86 -51.5t-117.5 -18.5v52q54 0 95 15
t68 42t41.5 64t14.5 77v332h55v-38q0 -13 5 -27.5t14 -25.5t22 -18.5t29 -7.5zM346 572q0 41 40 41q20 0 30 -10.5t10 -30.5q0 -19 -10 -29t-30 -10t-30 8.5t-10 30.5zM454 572q0 20 10 30.5t30 10.5q40 0 40 -41q0 -22 -10 -30.5t-30 -8.5t-30 10t-10 29zM399 674
q0 24 10.5 32.5t30.5 8.5t30.5 -8.5t10.5 -32.5q0 -20 -11.5 -30.5t-29.5 -10.5t-29.5 10.5t-11.5 30.5z" />
    <glyph glyph-name="uniFEE8_uniFEAE.liga" unicode="&#xfee8;&#xfeae;" horiz-adv-x="536" 
d="M344 179q30 0 51 25.5t21 62.5v160h57v-270q0 -46 12.5 -72.5t50.5 -26.5v-58q-20 0 -40.5 4.5t-37 18.5t-27.5 38.5t-12 66.5l-2 29h-2q-15 -23 -33.5 -31.5t-36.5 -8.5t-38 8.5t-30 31.5h-3v-191q0 -56 -18 -102.5t-52.5 -79.5t-86 -51.5t-117.5 -18.5v52q54 0 95 15
t68 42t41.5 64t14.5 77v332h55v-38q0 -13 5 -27.5t14 -25.5t22 -18.5t29 -7.5zM402 615q0 44 43 44t43 -44q0 -43 -43 -43t-43 43z" />
    <glyph glyph-name="uniFBE9_uniFEAE.liga" unicode="&#xfbe9;&#xfeae;" horiz-adv-x="570" 
d="M360 179q40 0 64.5 25.5t24.5 62.5v160h57v-270q0 -46 13 -72.5t51 -26.5v-58q-21 0 -41.5 4.5t-37 18.5t-27.5 38.5t-12 66.5v29h-3q-17 -23 -40 -31.5t-48 -8.5q-23 0 -48 8.5t-36 31.5h-3v-191q0 -56 -18 -102.5t-52.5 -79.5t-86 -51.5t-117.5 -18.5v52q54 0 95 15
t68 42t41.5 64t14.5 77v332h55v-38q0 -13 6 -27.5t16.5 -25.5t27 -18.5t36.5 -7.5z" />
    <glyph glyph-name="uniFEF4_uniFEAE.liga" unicode="&#xfef4;&#xfeae;" horiz-adv-x="536" 
d="M344 179q30 0 51 25.5t21 62.5v160h57v-270q0 -46 12.5 -72.5t50.5 -26.5v-58q-20 0 -40.5 4.5t-37 18.5t-27.5 38.5t-12 66.5l-2 29h-2q-15 -23 -33.5 -31.5t-36.5 -8.5t-38 8.5t-30 31.5h-3v-191q0 -56 -18 -102.5t-52.5 -79.5t-86 -51.5t-117.5 -18.5v52q54 0 95 15
t68 42t41.5 64t14.5 77v332h55v-38q0 -13 5 -27.5t14 -25.5t22 -18.5t29 -7.5zM342 -193q0 41 41 41q18 0 28.5 -10.5t10.5 -30.5t-10.5 -29.5t-28.5 -9.5q-20 0 -30.5 9t-10.5 30zM444 -193q0 20 10.5 30.5t28.5 10.5q41 0 41 -41q0 -21 -10.5 -30t-30.5 -9
q-18 0 -28.5 9.5t-10.5 29.5z" />
    <glyph glyph-name="uniFE8C_uniFEB0.liga" unicode="&#xfe8c;&#xfeb0;" horiz-adv-x="570" 
d="M360 179q40 0 64.5 25.5t24.5 62.5v160h57v-270q0 -46 13 -72.5t51 -26.5v-58q-21 0 -41.5 4.5t-37 18.5t-27.5 38.5t-12 66.5v29h-3q-17 -23 -40 -31.5t-48 -8.5q-23 0 -48 8.5t-36 31.5h-3v-191q0 -56 -18 -102.5t-52.5 -79.5t-86 -51.5t-117.5 -18.5v52q54 0 95 15
t68 42t41.5 64t14.5 77v332h55v-38q0 -13 6 -27.5t16.5 -25.5t27 -18.5t36.5 -7.5zM203 528q0 44 43 44t43 -44q0 -43 -43 -43t-43 43zM415 533v74q0 43 26.5 72t68.5 29h36v-37h-36q-25 0 -42 -18.5t-17 -45.5v-36h95v-38h-131z" />
    <glyph glyph-name="uniFE92_uniFEB0.liga" unicode="&#xfe92;&#xfeb0;" horiz-adv-x="536" 
d="M344 179q30 0 51 25.5t21 62.5v160h57v-270q0 -46 12.5 -72.5t50.5 -26.5v-58q-20 0 -40.5 4.5t-37 18.5t-27.5 38.5t-12 66.5l-2 29h-2q-15 -23 -33.5 -31.5t-36.5 -8.5t-38 8.5t-30 31.5h-3v-191q0 -56 -18 -102.5t-52.5 -79.5t-86 -51.5t-117.5 -18.5v52q54 0 95 15
t68 42t41.5 64t14.5 77v332h55v-38q0 -13 5 -27.5t14 -25.5t22 -18.5t29 -7.5zM406 -152q0 44 43 44t43 -44q0 -43 -43 -43t-43 43zM203 528q0 44 43 44t43 -44q0 -43 -43 -43t-43 43z" />
    <glyph glyph-name="uniFE98_uniFEB0.liga" unicode="&#xfe98;&#xfeb0;" horiz-adv-x="570" 
d="M360 179q40 0 64.5 25.5t24.5 62.5v160h57v-270q0 -46 13 -72.5t51 -26.5v-58q-21 0 -41.5 4.5t-37 18.5t-27.5 38.5t-12 66.5v29h-3q-17 -23 -40 -31.5t-48 -8.5q-23 0 -48 8.5t-36 31.5h-3v-191q0 -56 -18 -102.5t-52.5 -79.5t-86 -51.5t-117.5 -18.5v52q54 0 95 15
t68 42t41.5 64t14.5 77v332h55v-38q0 -13 6 -27.5t16.5 -25.5t27 -18.5t36.5 -7.5zM383 615q0 41 41 41q18 0 28.5 -10.5t10.5 -30.5t-10.5 -29.5t-28.5 -9.5q-20 0 -30.5 9t-10.5 30zM485 615q0 20 10.5 30.5t28.5 10.5q41 0 41 -41q0 -21 -10.5 -30t-30.5 -9
q-18 0 -28.5 9.5t-10.5 29.5zM203 528q0 44 43 44t43 -44q0 -43 -43 -43t-43 43z" />
    <glyph glyph-name="uniFE9C_uniFEB0.liga" unicode="&#xfe9c;&#xfeb0;" horiz-adv-x="570" 
d="M360 179q40 0 64.5 25.5t24.5 62.5v160h57v-270q0 -46 13 -72.5t51 -26.5v-58q-21 0 -41.5 4.5t-37 18.5t-27.5 38.5t-12 66.5v29h-3q-17 -23 -40 -31.5t-48 -8.5q-23 0 -48 8.5t-36 31.5h-3v-191q0 -56 -18 -102.5t-52.5 -79.5t-86 -51.5t-117.5 -18.5v52q54 0 95 15
t68 42t41.5 64t14.5 77v332h55v-38q0 -13 6 -27.5t16.5 -25.5t27 -18.5t36.5 -7.5zM377 572q0 41 40 41q20 0 30 -10.5t10 -30.5q0 -19 -10 -29t-30 -10t-30 8.5t-10 30.5zM485 572q0 20 10 30.5t30 10.5q40 0 40 -41q0 -22 -10 -30.5t-30 -8.5t-30 10t-10 29zM430 674
q0 24 10.5 32.5t30.5 8.5t30.5 -8.5t10.5 -32.5q0 -20 -11.5 -30.5t-29.5 -10.5t-29.5 10.5t-11.5 30.5zM203 528q0 44 43 44t43 -44q0 -43 -43 -43t-43 43z" />
    <glyph glyph-name="uniFEE8_uniFEB0.liga" unicode="&#xfee8;&#xfeb0;" horiz-adv-x="570" 
d="M360 179q40 0 64.5 25.5t24.5 62.5v160h57v-270q0 -46 13 -72.5t51 -26.5v-58q-21 0 -41.5 4.5t-37 18.5t-27.5 38.5t-12 66.5v29h-3q-17 -23 -40 -31.5t-48 -8.5q-23 0 -48 8.5t-36 31.5h-3v-191q0 -56 -18 -102.5t-52.5 -79.5t-86 -51.5t-117.5 -18.5v52q54 0 95 15
t68 42t41.5 64t14.5 77v332h55v-38q0 -13 6 -27.5t16.5 -25.5t27 -18.5t36.5 -7.5zM203 528q0 44 43 44t43 -44q0 -43 -43 -43t-43 43zM435 615q0 44 43 44t43 -44q0 -43 -43 -43t-43 43z" />
    <glyph glyph-name="uniFBE9_uniFEB0.liga" unicode="&#xfbe9;&#xfeb0;" horiz-adv-x="536" 
d="M344 179q30 0 51 25.5t21 62.5v160h57v-270q0 -46 12.5 -72.5t50.5 -26.5v-58q-20 0 -40.5 4.5t-37 18.5t-27.5 38.5t-12 66.5l-2 29h-2q-15 -23 -33.5 -31.5t-36.5 -8.5t-38 8.5t-30 31.5h-3v-191q0 -56 -18 -102.5t-52.5 -79.5t-86 -51.5t-117.5 -18.5v52q54 0 95 15
t68 42t41.5 64t14.5 77v332h55v-38q0 -13 5 -27.5t14 -25.5t22 -18.5t29 -7.5zM203 528q0 44 43 44t43 -44q0 -43 -43 -43t-43 43z" />
    <glyph glyph-name="uniFEF4_uniFEB0.liga" unicode="&#xfef4;&#xfeb0;" horiz-adv-x="536" 
d="M344 179q30 0 51 25.5t21 62.5v160h57v-270q0 -46 12.5 -72.5t50.5 -26.5v-58q-20 0 -40.5 4.5t-37 18.5t-27.5 38.5t-12 66.5l-2 29h-2q-15 -23 -33.5 -31.5t-36.5 -8.5t-38 8.5t-30 31.5h-3v-191q0 -56 -18 -102.5t-52.5 -79.5t-86 -51.5t-117.5 -18.5v52q54 0 95 15
t68 42t41.5 64t14.5 77v332h55v-38q0 -13 5 -27.5t14 -25.5t22 -18.5t29 -7.5zM202 528q0 44 43 44t43 -44q0 -43 -43 -43t-43 43zM342 -193q0 41 41 41q18 0 28.5 -10.5t10.5 -30.5t-10.5 -29.5t-28.5 -9.5q-20 0 -30.5 9t-10.5 30zM444 -193q0 20 10.5 30.5t28.5 10.5
q41 0 41 -41q0 -21 -10.5 -30t-30.5 -9q-18 0 -28.5 9.5t-10.5 29.5z" />
    <glyph glyph-name="uniFE8C_uniFB8D.liga" unicode="&#xfe8c;&#xfb8d;" horiz-adv-x="570" 
d="M360 179q40 0 64.5 25.5t24.5 62.5v160h57v-270q0 -46 13 -72.5t51 -26.5v-58q-21 0 -41.5 4.5t-37 18.5t-27.5 38.5t-12 66.5v29h-3q-17 -23 -40 -31.5t-48 -8.5q-23 0 -48 8.5t-36 31.5h-3v-191q0 -56 -18 -102.5t-52.5 -79.5t-86 -51.5t-117.5 -18.5v52q54 0 95 15
t68 42t41.5 64t14.5 77v332h55v-38q0 -13 6 -27.5t16.5 -25.5t27 -18.5t36.5 -7.5zM116 477v33h34v128h33v-57q0 -4 -0.5 -12.5t-3.5 -15.5l3 -1l6 9q12 17 26.5 26.5t31.5 9.5q21 0 38.5 -14t17.5 -49v-57h-186zM270 530q0 14 -5.5 23.5t-18.5 9.5q-12 0 -19.5 -7
t-17.5 -17l-22 -29h83v20zM415 533v74q0 43 26.5 72t68.5 29h36v-37h-36q-25 0 -42 -18.5t-17 -45.5v-36h95v-38h-131z" />
    <glyph glyph-name="uniFE92_uniFB8D.liga" unicode="&#xfe92;&#xfb8d;" horiz-adv-x="536" 
d="M344 179q30 0 51 25.5t21 62.5v160h57v-270q0 -46 12.5 -72.5t50.5 -26.5v-58q-20 0 -40.5 4.5t-37 18.5t-27.5 38.5t-12 66.5l-2 29h-2q-15 -23 -33.5 -31.5t-36.5 -8.5t-38 8.5t-30 31.5h-3v-191q0 -56 -18 -102.5t-52.5 -79.5t-86 -51.5t-117.5 -18.5v52q54 0 95 15
t68 42t41.5 64t14.5 77v332h55v-38q0 -13 5 -27.5t14 -25.5t22 -18.5t29 -7.5zM116 477v33h34v128h33v-57q0 -4 -0.5 -12.5t-3.5 -15.5l3 -1l6 9q12 17 26.5 26.5t31.5 9.5q21 0 38.5 -14t17.5 -49v-57h-186zM270 530q0 14 -5.5 23.5t-18.5 9.5q-12 0 -19.5 -7t-17.5 -17
l-22 -29h83v20zM406 -152q0 44 43 44t43 -44q0 -43 -43 -43t-43 43z" />
    <glyph glyph-name="uniFE98_uniFB8D.liga" unicode="&#xfe98;&#xfb8d;" horiz-adv-x="570" 
d="M360 179q40 0 64.5 25.5t24.5 62.5v160h57v-270q0 -46 13 -72.5t51 -26.5v-58q-21 0 -41.5 4.5t-37 18.5t-27.5 38.5t-12 66.5v29h-3q-17 -23 -40 -31.5t-48 -8.5q-23 0 -48 8.5t-36 31.5h-3v-191q0 -56 -18 -102.5t-52.5 -79.5t-86 -51.5t-117.5 -18.5v52q54 0 95 15
t68 42t41.5 64t14.5 77v332h55v-38q0 -13 6 -27.5t16.5 -25.5t27 -18.5t36.5 -7.5zM383 615q0 41 41 41q18 0 28.5 -10.5t10.5 -30.5t-10.5 -29.5t-28.5 -9.5q-20 0 -30.5 9t-10.5 30zM485 615q0 20 10.5 30.5t28.5 10.5q41 0 41 -41q0 -21 -10.5 -30t-30.5 -9
q-18 0 -28.5 9.5t-10.5 29.5zM116 477v33h34v128h33v-57q0 -4 -0.5 -12.5t-3.5 -15.5l3 -1l6 9q12 17 26.5 26.5t31.5 9.5q21 0 38.5 -14t17.5 -49v-57h-186zM270 530q0 14 -5.5 23.5t-18.5 9.5q-12 0 -19.5 -7t-17.5 -17l-22 -29h83v20z" />
    <glyph glyph-name="uniFE9C_uniFB8D.liga" unicode="&#xfe9c;&#xfb8d;" horiz-adv-x="570" 
d="M360 179q40 0 64.5 25.5t24.5 62.5v160h57v-270q0 -46 13 -72.5t51 -26.5v-58q-21 0 -41.5 4.5t-37 18.5t-27.5 38.5t-12 66.5v29h-3q-17 -23 -40 -31.5t-48 -8.5q-23 0 -48 8.5t-36 31.5h-3v-191q0 -56 -18 -102.5t-52.5 -79.5t-86 -51.5t-117.5 -18.5v52q54 0 95 15
t68 42t41.5 64t14.5 77v332h55v-38q0 -13 6 -27.5t16.5 -25.5t27 -18.5t36.5 -7.5zM116 477v33h34v128h33v-57q0 -4 -0.5 -12.5t-3.5 -15.5l3 -1l6 9q12 17 26.5 26.5t31.5 9.5q21 0 38.5 -14t17.5 -49v-57h-186zM270 530q0 14 -5.5 23.5t-18.5 9.5q-12 0 -19.5 -7
t-17.5 -17l-22 -29h83v20zM377 572q0 41 40 41q20 0 30 -10.5t10 -30.5q0 -19 -10 -29t-30 -10t-30 8.5t-10 30.5zM485 572q0 20 10 30.5t30 10.5q40 0 40 -41q0 -22 -10 -30.5t-30 -8.5t-30 10t-10 29zM430 674q0 24 10.5 32.5t30.5 8.5t30.5 -8.5t10.5 -32.5
q0 -20 -11.5 -30.5t-29.5 -10.5t-29.5 10.5t-11.5 30.5z" />
    <glyph glyph-name="uniFEE8_uniFB8D.liga" unicode="&#xfee8;&#xfb8d;" horiz-adv-x="570" 
d="M360 179q40 0 64.5 25.5t24.5 62.5v160h57v-270q0 -46 13 -72.5t51 -26.5v-58q-21 0 -41.5 4.5t-37 18.5t-27.5 38.5t-12 66.5v29h-3q-17 -23 -40 -31.5t-48 -8.5q-23 0 -48 8.5t-36 31.5h-3v-191q0 -56 -18 -102.5t-52.5 -79.5t-86 -51.5t-117.5 -18.5v52q54 0 95 15
t68 42t41.5 64t14.5 77v332h55v-38q0 -13 6 -27.5t16.5 -25.5t27 -18.5t36.5 -7.5zM435 615q0 44 43 44t43 -44q0 -43 -43 -43t-43 43zM116 477v33h34v128h33v-57q0 -4 -0.5 -12.5t-3.5 -15.5l3 -1l6 9q12 17 26.5 26.5t31.5 9.5q21 0 38.5 -14t17.5 -49v-57h-186zM270 530
q0 14 -5.5 23.5t-18.5 9.5q-12 0 -19.5 -7t-17.5 -17l-22 -29h83v20z" />
    <glyph glyph-name="uniFBE9_uniFB8D.liga" unicode="&#xfbe9;&#xfb8d;" horiz-adv-x="536" 
d="M344 179q30 0 51 25.5t21 62.5v160h57v-270q0 -46 12.5 -72.5t50.5 -26.5v-58q-20 0 -40.5 4.5t-37 18.5t-27.5 38.5t-12 66.5l-2 29h-2q-15 -23 -33.5 -31.5t-36.5 -8.5t-38 8.5t-30 31.5h-3v-191q0 -56 -18 -102.5t-52.5 -79.5t-86 -51.5t-117.5 -18.5v52q54 0 95 15
t68 42t41.5 64t14.5 77v332h55v-38q0 -13 5 -27.5t14 -25.5t22 -18.5t29 -7.5zM116 477v33h34v128h33v-57q0 -4 -0.5 -12.5t-3.5 -15.5l3 -1l6 9q12 17 26.5 26.5t31.5 9.5q21 0 38.5 -14t17.5 -49v-57h-186zM270 530q0 14 -5.5 23.5t-18.5 9.5q-12 0 -19.5 -7t-17.5 -17
l-22 -29h83v20z" />
    <glyph glyph-name="uniFEF4_uniFB8D.liga" unicode="&#xfef4;&#xfb8d;" horiz-adv-x="536" 
d="M344 179q30 0 51 25.5t21 62.5v160h57v-270q0 -46 12.5 -72.5t50.5 -26.5v-58q-20 0 -40.5 4.5t-37 18.5t-27.5 38.5t-12 66.5l-2 29h-2q-15 -23 -33.5 -31.5t-36.5 -8.5t-38 8.5t-30 31.5h-3v-191q0 -56 -18 -102.5t-52.5 -79.5t-86 -51.5t-117.5 -18.5v52q54 0 95 15
t68 42t41.5 64t14.5 77v332h55v-38q0 -13 5 -27.5t14 -25.5t22 -18.5t29 -7.5zM116 477v33h34v128h33v-57q0 -4 -0.5 -12.5t-3.5 -15.5l3 -1l6 9q12 17 26.5 26.5t31.5 9.5q21 0 38.5 -14t17.5 -49v-57h-186zM270 530q0 14 -5.5 23.5t-18.5 9.5q-12 0 -19.5 -7t-17.5 -17
l-22 -29h83v20zM342 -193q0 41 41 41q18 0 28.5 -10.5t10.5 -30.5t-10.5 -29.5t-28.5 -9.5q-20 0 -30.5 9t-10.5 30zM444 -193q0 20 10.5 30.5t28.5 10.5q41 0 41 -41q0 -21 -10.5 -30t-30.5 -9q-18 0 -28.5 9.5t-10.5 29.5z" />
    <glyph glyph-name="uniFE8C_uniFB8B.liga" unicode="&#xfe8c;&#xfb8b;" horiz-adv-x="570" 
d="M360 179q40 0 64.5 25.5t24.5 62.5v160h57v-270q0 -46 13 -72.5t51 -26.5v-58q-21 0 -41.5 4.5t-37 18.5t-27.5 38.5t-12 66.5v29h-3q-17 -23 -40 -31.5t-48 -8.5q-23 0 -48 8.5t-36 31.5h-3v-191q0 -56 -18 -102.5t-52.5 -79.5t-86 -51.5t-117.5 -18.5v52q54 0 95 15
t68 42t41.5 64t14.5 77v332h55v-38q0 -13 6 -27.5t16.5 -25.5t27 -18.5t36.5 -7.5zM415 533v74q0 43 26.5 72t68.5 29h36v-37h-36q-25 0 -42 -18.5t-17 -45.5v-36h95v-38h-131zM114 516q0 41 40 41q20 0 30 -10.5t10 -30.5q0 -19 -10 -29t-30 -10t-30 8.5t-10 30.5zM222 516
q0 20 10 30.5t30 10.5q40 0 40 -41q0 -22 -10 -30.5t-30 -8.5t-30 10t-10 29zM167 618q0 24 10.5 32.5t30.5 8.5t30.5 -8.5t10.5 -32.5q0 -20 -11.5 -30.5t-29.5 -10.5t-29.5 10.5t-11.5 30.5z" />
    <glyph glyph-name="uniFE92_uniFB8B.liga" unicode="&#xfe92;&#xfb8b;" horiz-adv-x="536" 
d="M344 179q30 0 51 25.5t21 62.5v160h57v-270q0 -46 12.5 -72.5t50.5 -26.5v-58q-20 0 -40.5 4.5t-37 18.5t-27.5 38.5t-12 66.5l-2 29h-2q-15 -23 -33.5 -31.5t-36.5 -8.5t-38 8.5t-30 31.5h-3v-191q0 -56 -18 -102.5t-52.5 -79.5t-86 -51.5t-117.5 -18.5v52q54 0 95 15
t68 42t41.5 64t14.5 77v332h55v-38q0 -13 5 -27.5t14 -25.5t22 -18.5t29 -7.5zM406 -152q0 44 43 44t43 -44q0 -43 -43 -43t-43 43zM114 516q0 41 40 41q20 0 30 -10.5t10 -30.5q0 -19 -10 -29t-30 -10t-30 8.5t-10 30.5zM222 516q0 20 10 30.5t30 10.5q40 0 40 -41
q0 -22 -10 -30.5t-30 -8.5t-30 10t-10 29zM167 618q0 24 10.5 32.5t30.5 8.5t30.5 -8.5t10.5 -32.5q0 -20 -11.5 -30.5t-29.5 -10.5t-29.5 10.5t-11.5 30.5z" />
    <glyph glyph-name="uniFE98_uniFB8B.liga" unicode="&#xfe98;&#xfb8b;" horiz-adv-x="570" 
d="M360 179q40 0 64.5 25.5t24.5 62.5v160h57v-270q0 -46 13 -72.5t51 -26.5v-58q-21 0 -41.5 4.5t-37 18.5t-27.5 38.5t-12 66.5v29h-3q-17 -23 -40 -31.5t-48 -8.5q-23 0 -48 8.5t-36 31.5h-3v-191q0 -56 -18 -102.5t-52.5 -79.5t-86 -51.5t-117.5 -18.5v52q54 0 95 15
t68 42t41.5 64t14.5 77v332h55v-38q0 -13 6 -27.5t16.5 -25.5t27 -18.5t36.5 -7.5zM114 516q0 41 40 41q20 0 30 -10.5t10 -30.5q0 -19 -10 -29t-30 -10t-30 8.5t-10 30.5zM222 516q0 20 10 30.5t30 10.5q40 0 40 -41q0 -22 -10 -30.5t-30 -8.5t-30 10t-10 29zM167 618
q0 24 10.5 32.5t30.5 8.5t30.5 -8.5t10.5 -32.5q0 -20 -11.5 -30.5t-29.5 -10.5t-29.5 10.5t-11.5 30.5zM383 615q0 41 41 41q18 0 28.5 -10.5t10.5 -30.5t-10.5 -29.5t-28.5 -9.5q-20 0 -30.5 9t-10.5 30zM485 615q0 20 10.5 30.5t28.5 10.5q41 0 41 -41q0 -21 -10.5 -30
t-30.5 -9q-18 0 -28.5 9.5t-10.5 29.5z" />
    <glyph glyph-name="uniFE9C_uniFB8B.liga" unicode="&#xfe9c;&#xfb8b;" horiz-adv-x="570" 
d="M360 179q40 0 64.5 25.5t24.5 62.5v160h57v-270q0 -46 13 -72.5t51 -26.5v-58q-21 0 -41.5 4.5t-37 18.5t-27.5 38.5t-12 66.5v29h-3q-17 -23 -40 -31.5t-48 -8.5q-23 0 -48 8.5t-36 31.5h-3v-191q0 -56 -18 -102.5t-52.5 -79.5t-86 -51.5t-117.5 -18.5v52q54 0 95 15
t68 42t41.5 64t14.5 77v332h55v-38q0 -13 6 -27.5t16.5 -25.5t27 -18.5t36.5 -7.5zM114 516q0 41 40 41q20 0 30 -10.5t10 -30.5q0 -19 -10 -29t-30 -10t-30 8.5t-10 30.5zM222 516q0 20 10 30.5t30 10.5q40 0 40 -41q0 -22 -10 -30.5t-30 -8.5t-30 10t-10 29zM167 618
q0 24 10.5 32.5t30.5 8.5t30.5 -8.5t10.5 -32.5q0 -20 -11.5 -30.5t-29.5 -10.5t-29.5 10.5t-11.5 30.5zM377 572q0 41 40 41q20 0 30 -10.5t10 -30.5q0 -19 -10 -29t-30 -10t-30 8.5t-10 30.5zM485 572q0 20 10 30.5t30 10.5q40 0 40 -41q0 -22 -10 -30.5t-30 -8.5t-30 10
t-10 29zM430 674q0 24 10.5 32.5t30.5 8.5t30.5 -8.5t10.5 -32.5q0 -20 -11.5 -30.5t-29.5 -10.5t-29.5 10.5t-11.5 30.5z" />
    <glyph glyph-name="uniFEE8_uniFB8B.liga" unicode="&#xfee8;&#xfb8b;" horiz-adv-x="570" 
d="M360 179q40 0 64.5 25.5t24.5 62.5v160h57v-270q0 -46 13 -72.5t51 -26.5v-58q-21 0 -41.5 4.5t-37 18.5t-27.5 38.5t-12 66.5v29h-3q-17 -23 -40 -31.5t-48 -8.5q-23 0 -48 8.5t-36 31.5h-3v-191q0 -56 -18 -102.5t-52.5 -79.5t-86 -51.5t-117.5 -18.5v52q54 0 95 15
t68 42t41.5 64t14.5 77v332h55v-38q0 -13 6 -27.5t16.5 -25.5t27 -18.5t36.5 -7.5zM435 615q0 44 43 44t43 -44q0 -43 -43 -43t-43 43zM114 516q0 41 40 41q20 0 30 -10.5t10 -30.5q0 -19 -10 -29t-30 -10t-30 8.5t-10 30.5zM222 516q0 20 10 30.5t30 10.5q40 0 40 -41
q0 -22 -10 -30.5t-30 -8.5t-30 10t-10 29zM167 618q0 24 10.5 32.5t30.5 8.5t30.5 -8.5t10.5 -32.5q0 -20 -11.5 -30.5t-29.5 -10.5t-29.5 10.5t-11.5 30.5z" />
    <glyph glyph-name="uniFBE9_uniFB8B.liga" unicode="&#xfbe9;&#xfb8b;" horiz-adv-x="536" 
d="M344 179q30 0 51 25.5t21 62.5v160h57v-270q0 -46 12.5 -72.5t50.5 -26.5v-58q-20 0 -40.5 4.5t-37 18.5t-27.5 38.5t-12 66.5l-2 29h-2q-15 -23 -33.5 -31.5t-36.5 -8.5t-38 8.5t-30 31.5h-3v-191q0 -56 -18 -102.5t-52.5 -79.5t-86 -51.5t-117.5 -18.5v52q54 0 95 15
t68 42t41.5 64t14.5 77v332h55v-38q0 -13 5 -27.5t14 -25.5t22 -18.5t29 -7.5zM114 516q0 41 40 41q20 0 30 -10.5t10 -30.5q0 -19 -10 -29t-30 -10t-30 8.5t-10 30.5zM222 516q0 20 10 30.5t30 10.5q40 0 40 -41q0 -22 -10 -30.5t-30 -8.5t-30 10t-10 29zM167 618
q0 24 10.5 32.5t30.5 8.5t30.5 -8.5t10.5 -32.5q0 -20 -11.5 -30.5t-29.5 -10.5t-29.5 10.5t-11.5 30.5z" />
    <glyph glyph-name="uniFEF4_uniFB8B.liga" unicode="&#xfef4;&#xfb8b;" horiz-adv-x="536" 
d="M344 179q30 0 51 25.5t21 62.5v160h57v-270q0 -46 12.5 -72.5t50.5 -26.5v-58q-20 0 -40.5 4.5t-37 18.5t-27.5 38.5t-12 66.5l-2 29h-2q-15 -23 -33.5 -31.5t-36.5 -8.5t-38 8.5t-30 31.5h-3v-191q0 -56 -18 -102.5t-52.5 -79.5t-86 -51.5t-117.5 -18.5v52q54 0 95 15
t68 42t41.5 64t14.5 77v332h55v-38q0 -13 5 -27.5t14 -25.5t22 -18.5t29 -7.5zM342 -193q0 41 41 41q18 0 28.5 -10.5t10.5 -30.5t-10.5 -29.5t-28.5 -9.5q-20 0 -30.5 9t-10.5 30zM444 -193q0 20 10.5 30.5t28.5 10.5q41 0 41 -41q0 -21 -10.5 -30t-30.5 -9
q-18 0 -28.5 9.5t-10.5 29.5zM114 516q0 41 40 41q20 0 30 -10.5t10 -30.5q0 -19 -10 -29t-30 -10t-30 8.5t-10 30.5zM222 516q0 20 10 30.5t30 10.5q40 0 40 -41q0 -22 -10 -30.5t-30 -8.5t-30 10t-10 29zM167 618q0 24 10.5 32.5t30.5 8.5t30.5 -8.5t10.5 -32.5
q0 -20 -11.5 -30.5t-29.5 -10.5t-29.5 10.5t-11.5 30.5z" />
    <glyph glyph-name="uniFB69_uniFEAE.liga" unicode="&#xfb69;&#xfeae;" horiz-adv-x="536" 
d="M344 179q30 0 51 25.5t21 62.5v160h57v-270q0 -46 12.5 -72.5t50.5 -26.5v-58q-20 0 -40.5 4.5t-37 18.5t-27.5 38.5t-12 66.5l-2 29h-2q-15 -23 -33.5 -31.5t-36.5 -8.5t-38 8.5t-30 31.5h-3v-191q0 -56 -18 -102.5t-52.5 -79.5t-86 -51.5t-117.5 -18.5v52q54 0 95 15
t68 42t41.5 64t14.5 77v332h55v-38q0 -13 5 -27.5t14 -25.5t22 -18.5t29 -7.5zM341 533v33h34v128h33v-57q0 -4 -0.5 -12.5t-3.5 -15.5l3 -1l6 9q12 17 26.5 26.5t31.5 9.5q21 0 38.5 -14t17.5 -49v-57h-186zM495 586q0 14 -5.5 23.5t-18.5 9.5q-12 0 -19.5 -7t-17.5 -17
l-22 -29h83v20z" />
    <glyph glyph-name="uniFB59_uniFEAE.liga" unicode="&#xfb59;&#xfeae;" horiz-adv-x="536" 
d="M344 179q30 0 51 25.5t21 62.5v160h57v-270q0 -46 12.5 -72.5t50.5 -26.5v-58q-20 0 -40.5 4.5t-37 18.5t-27.5 38.5t-12 66.5l-2 29h-2q-15 -23 -33.5 -31.5t-36.5 -8.5t-38 8.5t-30 31.5h-3v-191q0 -56 -18 -102.5t-52.5 -79.5t-86 -51.5t-117.5 -18.5v52q54 0 95 15
t68 42t41.5 64t14.5 77v332h55v-38q0 -13 5 -27.5t14 -25.5t22 -18.5t29 -7.5zM529 -192q0 -41 -40 -41q-20 0 -30 10.5t-10 30.5q0 19 10 29t30 10t30 -9t10 -30zM421 -192q0 -20 -10 -30.5t-30 -10.5q-40 0 -40 41q0 21 10 30t30 9t30 -10t10 -29zM476 -294
q0 -24 -10.5 -32.5t-30.5 -8.5t-30.5 8.5t-10.5 32.5q0 20 11.5 30.5t29.5 10.5t29.5 -10.5t11.5 -30.5z" />
    <glyph glyph-name="uniFBFF_uniFEAE.liga" unicode="&#xfbff;&#xfeae;" horiz-adv-x="536" 
d="M344 179q30 0 51 25.5t21 62.5v160h57v-270q0 -46 12.5 -72.5t50.5 -26.5v-58q-20 0 -40.5 4.5t-37 18.5t-27.5 38.5t-12 66.5l-2 29h-2q-15 -23 -33.5 -31.5t-36.5 -8.5t-38 8.5t-30 31.5h-3v-191q0 -56 -18 -102.5t-52.5 -79.5t-86 -51.5t-117.5 -18.5v52q54 0 95 15
t68 42t41.5 64t14.5 77v332h55v-38q0 -13 5 -27.5t14 -25.5t22 -18.5t29 -7.5zM342 -193q0 41 41 41q18 0 28.5 -10.5t10.5 -30.5t-10.5 -29.5t-28.5 -9.5q-20 0 -30.5 9t-10.5 30zM444 -193q0 20 10.5 30.5t28.5 10.5q41 0 41 -41q0 -21 -10.5 -30t-30.5 -9
q-18 0 -28.5 9.5t-10.5 29.5z" />
    <glyph glyph-name="uniFB69_uniFEB0.liga" unicode="&#xfb69;&#xfeb0;" horiz-adv-x="570" 
d="M360 179q40 0 64.5 25.5t24.5 62.5v160h57v-270q0 -46 13 -72.5t51 -26.5v-58q-21 0 -41.5 4.5t-37 18.5t-27.5 38.5t-12 66.5v29h-3q-17 -23 -40 -31.5t-48 -8.5q-23 0 -48 8.5t-36 31.5h-3v-191q0 -56 -18 -102.5t-52.5 -79.5t-86 -51.5t-117.5 -18.5v52q54 0 95 15
t68 42t41.5 64t14.5 77v332h55v-38q0 -13 6 -27.5t16.5 -25.5t27 -18.5t36.5 -7.5zM201 528q0 44 43 44t43 -44q0 -43 -43 -43t-43 43zM377 533v33h34v128h33v-57q0 -4 -0.5 -12.5t-3.5 -15.5l3 -1l6 9q12 17 26.5 26.5t31.5 9.5q21 0 38.5 -14t17.5 -49v-57h-186zM531 586
q0 14 -5.5 23.5t-18.5 9.5q-12 0 -19.5 -7t-17.5 -17l-22 -29h83v20z" />
    <glyph glyph-name="uniFB59_uniFEB0.liga" unicode="&#xfb59;&#xfeb0;" horiz-adv-x="536" 
d="M344 179q30 0 51 25.5t21 62.5v160h57v-270q0 -46 12.5 -72.5t50.5 -26.5v-58q-20 0 -40.5 4.5t-37 18.5t-27.5 38.5t-12 66.5l-2 29h-2q-15 -23 -33.5 -31.5t-36.5 -8.5t-38 8.5t-30 31.5h-3v-191q0 -56 -18 -102.5t-52.5 -79.5t-86 -51.5t-117.5 -18.5v52q54 0 95 15
t68 42t41.5 64t14.5 77v332h55v-38q0 -13 5 -27.5t14 -25.5t22 -18.5t29 -7.5zM203 528q0 44 43 44t43 -44q0 -43 -43 -43t-43 43zM529 -192q0 -41 -40 -41q-20 0 -30 10.5t-10 30.5q0 19 10 29t30 10t30 -9t10 -30zM421 -192q0 -20 -10 -30.5t-30 -10.5q-40 0 -40 41
q0 21 10 30t30 9t30 -10t10 -29zM476 -294q0 -24 -10.5 -32.5t-30.5 -8.5t-30.5 8.5t-10.5 32.5q0 20 11.5 30.5t29.5 10.5t29.5 -10.5t11.5 -30.5z" />
    <glyph glyph-name="uniFBFF_uniFEB0.liga" unicode="&#xfbff;&#xfeb0;" horiz-adv-x="536" 
d="M344 179q30 0 51 25.5t21 62.5v160h57v-270q0 -46 12.5 -72.5t50.5 -26.5v-58q-20 0 -40.5 4.5t-37 18.5t-27.5 38.5t-12 66.5l-2 29h-2q-15 -23 -33.5 -31.5t-36.5 -8.5t-38 8.5t-30 31.5h-3v-191q0 -56 -18 -102.5t-52.5 -79.5t-86 -51.5t-117.5 -18.5v52q54 0 95 15
t68 42t41.5 64t14.5 77v332h55v-38q0 -13 5 -27.5t14 -25.5t22 -18.5t29 -7.5zM203 528q0 44 43 44t43 -44q0 -43 -43 -43t-43 43zM342 -193q0 41 41 41q18 0 28.5 -10.5t10.5 -30.5t-10.5 -29.5t-28.5 -9.5q-20 0 -30.5 9t-10.5 30zM444 -193q0 20 10.5 30.5t28.5 10.5
q41 0 41 -41q0 -21 -10.5 -30t-30.5 -9q-18 0 -28.5 9.5t-10.5 29.5z" />
    <glyph glyph-name="uniFB69_uniFB8D.liga" unicode="&#xfb69;&#xfb8d;" horiz-adv-x="570" 
d="M360 179q40 0 64.5 25.5t24.5 62.5v160h57v-270q0 -46 13 -72.5t51 -26.5v-58q-21 0 -41.5 4.5t-37 18.5t-27.5 38.5t-12 66.5v29h-3q-17 -23 -40 -31.5t-48 -8.5q-23 0 -48 8.5t-36 31.5h-3v-191q0 -56 -18 -102.5t-52.5 -79.5t-86 -51.5t-117.5 -18.5v52q54 0 95 15
t68 42t41.5 64t14.5 77v332h55v-38q0 -13 6 -27.5t16.5 -25.5t27 -18.5t36.5 -7.5zM377 533v33h34v128h33v-57q0 -4 -0.5 -12.5t-3.5 -15.5l3 -1l6 9q12 17 26.5 26.5t31.5 9.5q21 0 38.5 -14t17.5 -49v-57h-186zM531 586q0 14 -5.5 23.5t-18.5 9.5q-12 0 -19.5 -7
t-17.5 -17l-22 -29h83v20zM115 477v33h34v128h33v-57q0 -4 -0.5 -12.5t-3.5 -15.5l3 -1l6 9q12 17 26.5 26.5t31.5 9.5q21 0 38.5 -14t17.5 -49v-57h-186zM269 530q0 14 -5.5 23.5t-18.5 9.5q-12 0 -19.5 -7t-17.5 -17l-22 -29h83v20z" />
    <glyph glyph-name="uniFB59_uniFB8D.liga" unicode="&#xfb59;&#xfb8d;" horiz-adv-x="536" 
d="M344 179q30 0 51 25.5t21 62.5v160h57v-270q0 -46 12.5 -72.5t50.5 -26.5v-58q-20 0 -40.5 4.5t-37 18.5t-27.5 38.5t-12 66.5l-2 29h-2q-15 -23 -33.5 -31.5t-36.5 -8.5t-38 8.5t-30 31.5h-3v-191q0 -56 -18 -102.5t-52.5 -79.5t-86 -51.5t-117.5 -18.5v52q54 0 95 15
t68 42t41.5 64t14.5 77v332h55v-38q0 -13 5 -27.5t14 -25.5t22 -18.5t29 -7.5zM116 477v33h34v128h33v-57q0 -4 -0.5 -12.5t-3.5 -15.5l3 -1l6 9q12 17 26.5 26.5t31.5 9.5q21 0 38.5 -14t17.5 -49v-57h-186zM270 530q0 14 -5.5 23.5t-18.5 9.5q-12 0 -19.5 -7t-17.5 -17
l-22 -29h83v20zM529 -192q0 -41 -40 -41q-20 0 -30 10.5t-10 30.5q0 19 10 29t30 10t30 -9t10 -30zM421 -192q0 -20 -10 -30.5t-30 -10.5q-40 0 -40 41q0 21 10 30t30 9t30 -10t10 -29zM476 -294q0 -24 -10.5 -32.5t-30.5 -8.5t-30.5 8.5t-10.5 32.5q0 20 11.5 30.5
t29.5 10.5t29.5 -10.5t11.5 -30.5z" />
    <glyph glyph-name="uniFBFF_uniFB8D.liga" unicode="&#xfbff;&#xfb8d;" horiz-adv-x="536" 
d="M344 179q30 0 51 25.5t21 62.5v160h57v-270q0 -46 12.5 -72.5t50.5 -26.5v-58q-20 0 -40.5 4.5t-37 18.5t-27.5 38.5t-12 66.5l-2 29h-2q-15 -23 -33.5 -31.5t-36.5 -8.5t-38 8.5t-30 31.5h-3v-191q0 -56 -18 -102.5t-52.5 -79.5t-86 -51.5t-117.5 -18.5v52q54 0 95 15
t68 42t41.5 64t14.5 77v332h55v-38q0 -13 5 -27.5t14 -25.5t22 -18.5t29 -7.5zM116 477v33h34v128h33v-57q0 -4 -0.5 -12.5t-3.5 -15.5l3 -1l6 9q12 17 26.5 26.5t31.5 9.5q21 0 38.5 -14t17.5 -49v-57h-186zM270 530q0 14 -5.5 23.5t-18.5 9.5q-12 0 -19.5 -7t-17.5 -17
l-22 -29h83v20zM342 -193q0 41 41 41q18 0 28.5 -10.5t10.5 -30.5t-10.5 -29.5t-28.5 -9.5q-20 0 -30.5 9t-10.5 30zM444 -193q0 20 10.5 30.5t28.5 10.5q41 0 41 -41q0 -21 -10.5 -30t-30.5 -9q-18 0 -28.5 9.5t-10.5 29.5z" />
    <glyph glyph-name="uniFB69_uniFB8B.liga" unicode="&#xfb69;&#xfb8b;" horiz-adv-x="570" 
d="M360 179q40 0 64.5 25.5t24.5 62.5v160h57v-270q0 -46 13 -72.5t51 -26.5v-58q-21 0 -41.5 4.5t-37 18.5t-27.5 38.5t-12 66.5v29h-3q-17 -23 -40 -31.5t-48 -8.5q-23 0 -48 8.5t-36 31.5h-3v-191q0 -56 -18 -102.5t-52.5 -79.5t-86 -51.5t-117.5 -18.5v52q54 0 95 15
t68 42t41.5 64t14.5 77v332h55v-38q0 -13 6 -27.5t16.5 -25.5t27 -18.5t36.5 -7.5zM377 533v33h34v128h33v-57q0 -4 -0.5 -12.5t-3.5 -15.5l3 -1l6 9q12 17 26.5 26.5t31.5 9.5q21 0 38.5 -14t17.5 -49v-57h-186zM531 586q0 14 -5.5 23.5t-18.5 9.5q-12 0 -19.5 -7
t-17.5 -17l-22 -29h83v20zM114 516q0 41 40 41q20 0 30 -10.5t10 -30.5q0 -19 -10 -29t-30 -10t-30 8.5t-10 30.5zM222 516q0 20 10 30.5t30 10.5q40 0 40 -41q0 -22 -10 -30.5t-30 -8.5t-30 10t-10 29zM167 618q0 24 10.5 32.5t30.5 8.5t30.5 -8.5t10.5 -32.5
q0 -20 -11.5 -30.5t-29.5 -10.5t-29.5 10.5t-11.5 30.5z" />
    <glyph glyph-name="uniFB59_uniFB8B.liga" unicode="&#xfb59;&#xfb8b;" horiz-adv-x="536" 
d="M344 179q30 0 51 25.5t21 62.5v160h57v-270q0 -46 12.5 -72.5t50.5 -26.5v-58q-20 0 -40.5 4.5t-37 18.5t-27.5 38.5t-12 66.5l-2 29h-2q-15 -23 -33.5 -31.5t-36.5 -8.5t-38 8.5t-30 31.5h-3v-191q0 -56 -18 -102.5t-52.5 -79.5t-86 -51.5t-117.5 -18.5v52q54 0 95 15
t68 42t41.5 64t14.5 77v332h55v-38q0 -13 5 -27.5t14 -25.5t22 -18.5t29 -7.5zM114 516q0 41 40 41q20 0 30 -10.5t10 -30.5q0 -19 -10 -29t-30 -10t-30 8.5t-10 30.5zM222 516q0 20 10 30.5t30 10.5q40 0 40 -41q0 -22 -10 -30.5t-30 -8.5t-30 10t-10 29zM167 618
q0 24 10.5 32.5t30.5 8.5t30.5 -8.5t10.5 -32.5q0 -20 -11.5 -30.5t-29.5 -10.5t-29.5 10.5t-11.5 30.5zM529 -192q0 -41 -40 -41q-20 0 -30 10.5t-10 30.5q0 19 10 29t30 10t30 -9t10 -30zM421 -192q0 -20 -10 -30.5t-30 -10.5q-40 0 -40 41q0 21 10 30t30 9t30 -10t10 -29
zM476 -294q0 -24 -10.5 -32.5t-30.5 -8.5t-30.5 8.5t-10.5 32.5q0 20 11.5 30.5t29.5 10.5t29.5 -10.5t11.5 -30.5z" />
    <glyph glyph-name="uniFBFF_uniFB8B.liga" unicode="&#xfbff;&#xfb8b;" horiz-adv-x="536" 
d="M344 179q30 0 51 25.5t21 62.5v160h57v-270q0 -46 12.5 -72.5t50.5 -26.5v-58q-20 0 -40.5 4.5t-37 18.5t-27.5 38.5t-12 66.5l-2 29h-2q-15 -23 -33.5 -31.5t-36.5 -8.5t-38 8.5t-30 31.5h-3v-191q0 -56 -18 -102.5t-52.5 -79.5t-86 -51.5t-117.5 -18.5v52q54 0 95 15
t68 42t41.5 64t14.5 77v332h55v-38q0 -13 5 -27.5t14 -25.5t22 -18.5t29 -7.5zM342 -193q0 41 41 41q18 0 28.5 -10.5t10.5 -30.5t-10.5 -29.5t-28.5 -9.5q-20 0 -30.5 9t-10.5 30zM444 -193q0 20 10.5 30.5t28.5 10.5q41 0 41 -41q0 -21 -10.5 -30t-30.5 -9
q-18 0 -28.5 9.5t-10.5 29.5zM114 516q0 41 40 41q20 0 30 -10.5t10 -30.5q0 -19 -10 -29t-30 -10t-30 8.5t-10 30.5zM222 516q0 20 10 30.5t30 10.5q40 0 40 -41q0 -22 -10 -30.5t-30 -8.5t-30 10t-10 29zM167 618q0 24 10.5 32.5t30.5 8.5t30.5 -8.5t10.5 -32.5
q0 -20 -11.5 -30.5t-29.5 -10.5t-29.5 10.5t-11.5 30.5z" />
    <glyph glyph-name="uniFE8C_uniFEE6.liga" unicode="&#xfe8c;&#xfee6;" horiz-adv-x="827" 
d="M635 179q30 0 51 25.5t21 62.5v160h57v-281q0 -38 12.5 -63t50.5 -25v-58q-20 0 -40.5 4.5t-36.5 18t-27.5 38.5t-12.5 67l-1 29h-3q-15 -23 -33 -31.5t-38 -8.5q-17 0 -37 8.5t-30 31.5h-3v-161q0 -64 -20.5 -117.5t-55.5 -90t-83 -56t-102 -19.5q-129 0 -195.5 86
t-66.5 243v74h54v-74q0 -133 54.5 -202t153.5 -69q42 0 79.5 15t66 44.5t43.5 72t15 94.5v299h57v-38q0 -13 4.5 -27.5t14 -25.5t22.5 -18.5t29 -7.5zM673 533v74q0 43 26.5 72t68.5 29h36v-37h-36q-25 0 -42 -18.5t-17 -45.5v-36h95v-38h-131zM263 417q0 44 43 44t43 -44
q0 -43 -43 -43t-43 43z" />
    <glyph glyph-name="uniFE92_uniFEE6.liga" unicode="&#xfe92;&#xfee6;" horiz-adv-x="827" 
d="M635 179q30 0 51 25.5t21 62.5v160h57v-281q0 -38 12.5 -63t50.5 -25v-58q-20 0 -40.5 4.5t-36.5 18t-27.5 38.5t-12.5 67l-1 29h-3q-15 -23 -33 -31.5t-38 -8.5q-17 0 -37 8.5t-30 31.5h-3v-161q0 -64 -20.5 -117.5t-55.5 -90t-83 -56t-102 -19.5q-129 0 -195.5 86
t-66.5 243v74h54v-74q0 -133 54.5 -202t153.5 -69q42 0 79.5 15t66 44.5t43.5 72t15 94.5v299h57v-38q0 -13 4.5 -27.5t14 -25.5t22.5 -18.5t29 -7.5zM696 -152q0 44 43 44t43 -44q0 -43 -43 -43t-43 43zM263 417q0 44 43 44t43 -44q0 -43 -43 -43t-43 43z" />
    <glyph glyph-name="uniFE98_uniFEE6.liga" unicode="&#xfe98;&#xfee6;" horiz-adv-x="827" 
d="M635 179q30 0 51 25.5t21 62.5v160h57v-281q0 -38 12.5 -63t50.5 -25v-58q-20 0 -40.5 4.5t-36.5 18t-27.5 38.5t-12.5 67l-1 29h-3q-15 -23 -33 -31.5t-38 -8.5q-17 0 -37 8.5t-30 31.5h-3v-161q0 -64 -20.5 -117.5t-55.5 -90t-83 -56t-102 -19.5q-129 0 -195.5 86
t-66.5 243v74h54v-74q0 -133 54.5 -202t153.5 -69q42 0 79.5 15t66 44.5t43.5 72t15 94.5v299h57v-38q0 -13 4.5 -27.5t14 -25.5t22.5 -18.5t29 -7.5zM640 615q0 41 41 41q18 0 28.5 -10.5t10.5 -30.5t-10.5 -29.5t-28.5 -9.5q-20 0 -30.5 9t-10.5 30zM742 615
q0 20 10.5 30.5t28.5 10.5q41 0 41 -41q0 -21 -10.5 -30t-30.5 -9q-18 0 -28.5 9.5t-10.5 29.5zM263 417q0 44 43 44t43 -44q0 -43 -43 -43t-43 43z" />
    <glyph glyph-name="uniFE9C_uniFEE6.liga" unicode="&#xfe9c;&#xfee6;" horiz-adv-x="827" 
d="M635 179q30 0 51 25.5t21 62.5v160h57v-281q0 -38 12.5 -63t50.5 -25v-58q-20 0 -40.5 4.5t-36.5 18t-27.5 38.5t-12.5 67l-1 29h-3q-15 -23 -33 -31.5t-38 -8.5q-17 0 -37 8.5t-30 31.5h-3v-161q0 -64 -20.5 -117.5t-55.5 -90t-83 -56t-102 -19.5q-129 0 -195.5 86
t-66.5 243v74h54v-74q0 -133 54.5 -202t153.5 -69q42 0 79.5 15t66 44.5t43.5 72t15 94.5v299h57v-38q0 -13 4.5 -27.5t14 -25.5t22.5 -18.5t29 -7.5zM637 572q0 41 40 41q20 0 30 -10.5t10 -30.5q0 -19 -10 -29t-30 -10t-30 8.5t-10 30.5zM745 572q0 20 10 30.5t30 10.5
q40 0 40 -41q0 -22 -10 -30.5t-30 -8.5t-30 10t-10 29zM690 674q0 24 10.5 32.5t30.5 8.5t30.5 -8.5t10.5 -32.5q0 -20 -11.5 -30.5t-29.5 -10.5t-29.5 10.5t-11.5 30.5zM263 417q0 44 43 44t43 -44q0 -43 -43 -43t-43 43z" />
    <glyph glyph-name="uniFEE8_uniFEE6.liga" unicode="&#xfee8;&#xfee6;" horiz-adv-x="827" 
d="M635 179q30 0 51 25.5t21 62.5v160h57v-281q0 -38 12.5 -63t50.5 -25v-58q-20 0 -40.5 4.5t-36.5 18t-27.5 38.5t-12.5 67l-1 29h-3q-15 -23 -33 -31.5t-38 -8.5q-17 0 -37 8.5t-30 31.5h-3v-161q0 -64 -20.5 -117.5t-55.5 -90t-83 -56t-102 -19.5q-129 0 -195.5 86
t-66.5 243v74h54v-74q0 -133 54.5 -202t153.5 -69q42 0 79.5 15t66 44.5t43.5 72t15 94.5v299h57v-38q0 -13 4.5 -27.5t14 -25.5t22.5 -18.5t29 -7.5zM692 615q0 44 43 44t43 -44q0 -43 -43 -43t-43 43zM263 417q0 44 43 44t43 -44q0 -43 -43 -43t-43 43z" />
    <glyph glyph-name="uniFBE9_uniFEE6.liga" unicode="&#xfbe9;&#xfee6;" horiz-adv-x="827" 
d="M635 179q30 0 51 25.5t21 62.5v160h57v-281q0 -38 12.5 -63t50.5 -25v-58q-20 0 -40.5 4.5t-36.5 18t-27.5 38.5t-12.5 67l-1 29h-3q-15 -23 -33 -31.5t-38 -8.5q-17 0 -37 8.5t-30 31.5h-3v-161q0 -64 -20.5 -117.5t-55.5 -90t-83 -56t-102 -19.5q-129 0 -195.5 86
t-66.5 243v74h54v-74q0 -133 54.5 -202t153.5 -69q42 0 79.5 15t66 44.5t43.5 72t15 94.5v299h57v-38q0 -13 4.5 -27.5t14 -25.5t22.5 -18.5t29 -7.5zM263 417q0 44 43 44t43 -44q0 -43 -43 -43t-43 43z" />
    <glyph glyph-name="uniFEF4_uniFEE6.liga" unicode="&#xfef4;&#xfee6;" horiz-adv-x="827" 
d="M635 179q30 0 51 25.5t21 62.5v160h57v-281q0 -38 12.5 -63t50.5 -25v-58q-20 0 -40.5 4.5t-36.5 18t-27.5 38.5t-12.5 67l-1 29h-3q-15 -23 -33 -31.5t-38 -8.5q-17 0 -37 8.5t-30 31.5h-3v-161q0 -64 -20.5 -117.5t-55.5 -90t-83 -56t-102 -19.5q-129 0 -195.5 86
t-66.5 243v74h54v-74q0 -133 54.5 -202t153.5 -69q42 0 79.5 15t66 44.5t43.5 72t15 94.5v299h57v-38q0 -13 4.5 -27.5t14 -25.5t22.5 -18.5t29 -7.5zM633 -193q0 41 41 41q18 0 28.5 -10.5t10.5 -30.5t-10.5 -29.5t-28.5 -9.5q-20 0 -30.5 9t-10.5 30zM735 -193
q0 20 10.5 30.5t28.5 10.5q41 0 41 -41q0 -21 -10.5 -30t-30.5 -9q-18 0 -28.5 9.5t-10.5 29.5zM263 417q0 44 43 44t43 -44q0 -43 -43 -43t-43 43z" />
    <glyph glyph-name="uniFBE9_uniFB9F.liga" unicode="&#xfbe9;&#xfb9f;" horiz-adv-x="827" 
d="M635 179q30 0 51 25.5t21 62.5v160h57v-281q0 -38 12.5 -63t50.5 -25v-58q-20 0 -40.5 4.5t-36.5 18t-27.5 38.5t-12.5 67l-1 29h-3q-15 -23 -33 -31.5t-38 -8.5q-17 0 -37 8.5t-30 31.5h-3v-161q0 -64 -20.5 -117.5t-55.5 -90t-83 -56t-102 -19.5q-129 0 -195.5 86
t-66.5 243v74h54v-74q0 -133 54.5 -202t153.5 -69q42 0 79.5 15t66 44.5t43.5 72t15 94.5v299h57v-38q0 -13 4.5 -27.5t14 -25.5t22.5 -18.5t29 -7.5z" />
    <glyph glyph-name="uniFB69_uniFEE6.liga" unicode="&#xfb69;&#xfee6;" horiz-adv-x="827" 
d="M635 179q30 0 51 25.5t21 62.5v160h57v-281q0 -38 12.5 -63t50.5 -25v-58q-20 0 -40.5 4.5t-36.5 18t-27.5 38.5t-12.5 67l-1 29h-3q-15 -23 -33 -31.5t-38 -8.5q-17 0 -37 8.5t-30 31.5h-3v-161q0 -64 -20.5 -117.5t-55.5 -90t-83 -56t-102 -19.5q-129 0 -195.5 86
t-66.5 243v74h54v-74q0 -133 54.5 -202t153.5 -69q42 0 79.5 15t66 44.5t43.5 72t15 94.5v299h57v-38q0 -13 4.5 -27.5t14 -25.5t22.5 -18.5t29 -7.5zM263 417q0 44 43 44t43 -44q0 -43 -43 -43t-43 43zM632 533v33h34v128h33v-57q0 -4 -0.5 -12.5t-3.5 -15.5l3 -1l6 9
q12 17 26.5 26.5t31.5 9.5q21 0 38.5 -14t17.5 -49v-57h-186zM786 586q0 14 -5.5 23.5t-18.5 9.5q-12 0 -19.5 -7t-17.5 -17l-22 -29h83v20z" />
    <glyph glyph-name="uniFB59_uniFEE6.liga" unicode="&#xfb59;&#xfee6;" horiz-adv-x="827" 
d="M635 179q30 0 51 25.5t21 62.5v160h57v-281q0 -38 12.5 -63t50.5 -25v-58q-20 0 -40.5 4.5t-36.5 18t-27.5 38.5t-12.5 67l-1 29h-3q-15 -23 -33 -31.5t-38 -8.5q-17 0 -37 8.5t-30 31.5h-3v-161q0 -64 -20.5 -117.5t-55.5 -90t-83 -56t-102 -19.5q-129 0 -195.5 86
t-66.5 243v74h54v-74q0 -133 54.5 -202t153.5 -69q42 0 79.5 15t66 44.5t43.5 72t15 94.5v299h57v-38q0 -13 4.5 -27.5t14 -25.5t22.5 -18.5t29 -7.5zM263 417q0 44 43 44t43 -44q0 -43 -43 -43t-43 43zM818 -192q0 -41 -40 -41q-20 0 -30 10.5t-10 30.5q0 19 10 29t30 10
t30 -9t10 -30zM710 -192q0 -20 -10 -30.5t-30 -10.5q-40 0 -40 41q0 21 10 30t30 9t30 -10t10 -29zM765 -294q0 -24 -10.5 -32.5t-30.5 -8.5t-30.5 8.5t-10.5 32.5q0 20 11.5 30.5t29.5 10.5t29.5 -10.5t11.5 -30.5z" />
    <glyph glyph-name="uniFBFF_uniFEE6.liga" unicode="&#xfbff;&#xfee6;" horiz-adv-x="827" 
d="M635 179q30 0 51 25.5t21 62.5v160h57v-281q0 -38 12.5 -63t50.5 -25v-58q-20 0 -40.5 4.5t-36.5 18t-27.5 38.5t-12.5 67l-1 29h-3q-15 -23 -33 -31.5t-38 -8.5q-17 0 -37 8.5t-30 31.5h-3v-161q0 -64 -20.5 -117.5t-55.5 -90t-83 -56t-102 -19.5q-129 0 -195.5 86
t-66.5 243v74h54v-74q0 -133 54.5 -202t153.5 -69q42 0 79.5 15t66 44.5t43.5 72t15 94.5v299h57v-38q0 -13 4.5 -27.5t14 -25.5t22.5 -18.5t29 -7.5zM263 417q0 44 43 44t43 -44q0 -43 -43 -43t-43 43zM633 -193q0 41 41 41q18 0 28.5 -10.5t10.5 -30.5t-10.5 -29.5
t-28.5 -9.5q-20 0 -30.5 9t-10.5 30zM735 -193q0 20 10.5 30.5t28.5 10.5q41 0 41 -41q0 -21 -10.5 -30t-30.5 -9q-18 0 -28.5 9.5t-10.5 29.5z" />
    <glyph glyph-name="uniFE8C_uniFB9F.liga" unicode="&#xfe8c;&#xfb9f;" horiz-adv-x="827" 
d="M635 179q30 0 51 25.5t21 62.5v160h57v-281q0 -38 12.5 -63t50.5 -25v-58q-20 0 -40.5 4.5t-36.5 18t-27.5 38.5t-12.5 67l-1 29h-3q-15 -23 -33 -31.5t-38 -8.5q-17 0 -37 8.5t-30 31.5h-3v-161q0 -64 -20.5 -117.5t-55.5 -90t-83 -56t-102 -19.5q-129 0 -195.5 86
t-66.5 243v74h54v-74q0 -133 54.5 -202t153.5 -69q42 0 79.5 15t66 44.5t43.5 72t15 94.5v299h57v-38q0 -13 4.5 -27.5t14 -25.5t22.5 -18.5t29 -7.5zM673 533v74q0 43 26.5 72t68.5 29h36v-37h-36q-25 0 -42 -18.5t-17 -45.5v-36h95v-38h-131z" />
    <glyph glyph-name="uniFE92_uniFB9F.liga" unicode="&#xfe92;&#xfb9f;" horiz-adv-x="827" 
d="M635 179q30 0 51 25.5t21 62.5v160h57v-281q0 -38 12.5 -63t50.5 -25v-58q-20 0 -40.5 4.5t-36.5 18t-27.5 38.5t-12.5 67l-1 29h-3q-15 -23 -33 -31.5t-38 -8.5q-17 0 -37 8.5t-30 31.5h-3v-161q0 -64 -20.5 -117.5t-55.5 -90t-83 -56t-102 -19.5q-129 0 -195.5 86
t-66.5 243v74h54v-74q0 -133 54.5 -202t153.5 -69q42 0 79.5 15t66 44.5t43.5 72t15 94.5v299h57v-38q0 -13 4.5 -27.5t14 -25.5t22.5 -18.5t29 -7.5zM696 -152q0 44 43 44t43 -44q0 -43 -43 -43t-43 43z" />
    <glyph glyph-name="uniFE98_uniFB9F.liga" unicode="&#xfe98;&#xfb9f;" horiz-adv-x="827" 
d="M635 179q30 0 51 25.5t21 62.5v160h57v-281q0 -38 12.5 -63t50.5 -25v-58q-20 0 -40.5 4.5t-36.5 18t-27.5 38.5t-12.5 67l-1 29h-3q-15 -23 -33 -31.5t-38 -8.5q-17 0 -37 8.5t-30 31.5h-3v-161q0 -64 -20.5 -117.5t-55.5 -90t-83 -56t-102 -19.5q-129 0 -195.5 86
t-66.5 243v74h54v-74q0 -133 54.5 -202t153.5 -69q42 0 79.5 15t66 44.5t43.5 72t15 94.5v299h57v-38q0 -13 4.5 -27.5t14 -25.5t22.5 -18.5t29 -7.5zM640 615q0 41 41 41q18 0 28.5 -10.5t10.5 -30.5t-10.5 -29.5t-28.5 -9.5q-20 0 -30.5 9t-10.5 30zM742 615
q0 20 10.5 30.5t28.5 10.5q41 0 41 -41q0 -21 -10.5 -30t-30.5 -9q-18 0 -28.5 9.5t-10.5 29.5z" />
    <glyph glyph-name="uniFE9C_uniFB9F.liga" unicode="&#xfe9c;&#xfb9f;" horiz-adv-x="827" 
d="M635 179q30 0 51 25.5t21 62.5v160h57v-281q0 -38 12.5 -63t50.5 -25v-58q-20 0 -40.5 4.5t-36.5 18t-27.5 38.5t-12.5 67l-1 29h-3q-15 -23 -33 -31.5t-38 -8.5q-17 0 -37 8.5t-30 31.5h-3v-161q0 -64 -20.5 -117.5t-55.5 -90t-83 -56t-102 -19.5q-129 0 -195.5 86
t-66.5 243v74h54v-74q0 -133 54.5 -202t153.5 -69q42 0 79.5 15t66 44.5t43.5 72t15 94.5v299h57v-38q0 -13 4.5 -27.5t14 -25.5t22.5 -18.5t29 -7.5zM637 572q0 41 40 41q20 0 30 -10.5t10 -30.5q0 -19 -10 -29t-30 -10t-30 8.5t-10 30.5zM745 572q0 20 10 30.5t30 10.5
q40 0 40 -41q0 -22 -10 -30.5t-30 -8.5t-30 10t-10 29zM690 674q0 24 10.5 32.5t30.5 8.5t30.5 -8.5t10.5 -32.5q0 -20 -11.5 -30.5t-29.5 -10.5t-29.5 10.5t-11.5 30.5z" />
    <glyph glyph-name="uniFEE8_uniFB9F.liga" unicode="&#xfee8;&#xfb9f;" horiz-adv-x="827" 
d="M635 179q30 0 51 25.5t21 62.5v160h57v-281q0 -38 12.5 -63t50.5 -25v-58q-20 0 -40.5 4.5t-36.5 18t-27.5 38.5t-12.5 67l-1 29h-3q-15 -23 -33 -31.5t-38 -8.5q-17 0 -37 8.5t-30 31.5h-3v-161q0 -64 -20.5 -117.5t-55.5 -90t-83 -56t-102 -19.5q-129 0 -195.5 86
t-66.5 243v74h54v-74q0 -133 54.5 -202t153.5 -69q42 0 79.5 15t66 44.5t43.5 72t15 94.5v299h57v-38q0 -13 4.5 -27.5t14 -25.5t22.5 -18.5t29 -7.5zM692 615q0 44 43 44t43 -44q0 -43 -43 -43t-43 43z" />
    <glyph glyph-name="uniFEF4_uniFB9F.liga" unicode="&#xfef4;&#xfb9f;" horiz-adv-x="827" 
d="M635 179q30 0 51 25.5t21 62.5v160h57v-281q0 -38 12.5 -63t50.5 -25v-58q-20 0 -40.5 4.5t-36.5 18t-27.5 38.5t-12.5 67l-1 29h-3q-15 -23 -33 -31.5t-38 -8.5q-17 0 -37 8.5t-30 31.5h-3v-161q0 -64 -20.5 -117.5t-55.5 -90t-83 -56t-102 -19.5q-129 0 -195.5 86
t-66.5 243v74h54v-74q0 -133 54.5 -202t153.5 -69q42 0 79.5 15t66 44.5t43.5 72t15 94.5v299h57v-38q0 -13 4.5 -27.5t14 -25.5t22.5 -18.5t29 -7.5zM633 -193q0 41 41 41q18 0 28.5 -10.5t10.5 -30.5t-10.5 -29.5t-28.5 -9.5q-20 0 -30.5 9t-10.5 30zM735 -193
q0 20 10.5 30.5t28.5 10.5q41 0 41 -41q0 -21 -10.5 -30t-30.5 -9q-18 0 -28.5 9.5t-10.5 29.5z" />
    <glyph glyph-name="uniFB69_uniFB9F.liga" unicode="&#xfb69;&#xfb9f;" horiz-adv-x="827" 
d="M635 179q30 0 51 25.5t21 62.5v160h57v-281q0 -38 12.5 -63t50.5 -25v-58q-20 0 -40.5 4.5t-36.5 18t-27.5 38.5t-12.5 67l-1 29h-3q-15 -23 -33 -31.5t-38 -8.5q-17 0 -37 8.5t-30 31.5h-3v-161q0 -64 -20.5 -117.5t-55.5 -90t-83 -56t-102 -19.5q-129 0 -195.5 86
t-66.5 243v74h54v-74q0 -133 54.5 -202t153.5 -69q42 0 79.5 15t66 44.5t43.5 72t15 94.5v299h57v-38q0 -13 4.5 -27.5t14 -25.5t22.5 -18.5t29 -7.5zM632 533v33h34v128h33v-57q0 -4 -0.5 -12.5t-3.5 -15.5l3 -1l6 9q12 17 26.5 26.5t31.5 9.5q21 0 38.5 -14t17.5 -49v-57
h-186zM786 586q0 14 -5.5 23.5t-18.5 9.5q-12 0 -19.5 -7t-17.5 -17l-22 -29h83v20z" />
    <glyph glyph-name="uniFB59_uniFB9F.liga" unicode="&#xfb59;&#xfb9f;" horiz-adv-x="827" 
d="M635 179q30 0 51 25.5t21 62.5v160h57v-281q0 -38 12.5 -63t50.5 -25v-58q-20 0 -40.5 4.5t-36.5 18t-27.5 38.5t-12.5 67l-1 29h-3q-15 -23 -33 -31.5t-38 -8.5q-17 0 -37 8.5t-30 31.5h-3v-161q0 -64 -20.5 -117.5t-55.5 -90t-83 -56t-102 -19.5q-129 0 -195.5 86
t-66.5 243v74h54v-74q0 -133 54.5 -202t153.5 -69q42 0 79.5 15t66 44.5t43.5 72t15 94.5v299h57v-38q0 -13 4.5 -27.5t14 -25.5t22.5 -18.5t29 -7.5zM818 -192q0 -41 -40 -41q-20 0 -30 10.5t-10 30.5q0 19 10 29t30 10t30 -9t10 -30zM710 -192q0 -20 -10 -30.5t-30 -10.5
q-40 0 -40 41q0 21 10 30t30 9t30 -10t10 -29zM765 -294q0 -24 -10.5 -32.5t-30.5 -8.5t-30.5 8.5t-10.5 32.5q0 20 11.5 30.5t29.5 10.5t29.5 -10.5t11.5 -30.5z" />
    <glyph glyph-name="uniFBFF_uniFB9F.liga" unicode="&#xfbff;&#xfb9f;" horiz-adv-x="827" 
d="M635 179q30 0 51 25.5t21 62.5v160h57v-281q0 -38 12.5 -63t50.5 -25v-58q-20 0 -40.5 4.5t-36.5 18t-27.5 38.5t-12.5 67l-1 29h-3q-15 -23 -33 -31.5t-38 -8.5q-17 0 -37 8.5t-30 31.5h-3v-161q0 -64 -20.5 -117.5t-55.5 -90t-83 -56t-102 -19.5q-129 0 -195.5 86
t-66.5 243v74h54v-74q0 -133 54.5 -202t153.5 -69q42 0 79.5 15t66 44.5t43.5 72t15 94.5v299h57v-38q0 -13 4.5 -27.5t14 -25.5t22.5 -18.5t29 -7.5zM633 -193q0 41 41 41q18 0 28.5 -10.5t10.5 -30.5t-10.5 -29.5t-28.5 -9.5q-20 0 -30.5 9t-10.5 30zM735 -193
q0 20 10.5 30.5t28.5 10.5q41 0 41 -41q0 -21 -10.5 -30t-30.5 -9q-18 0 -28.5 9.5t-10.5 29.5z" />
    <glyph glyph-name="uniFE8C_uniFE8A.liga" unicode="&#xfe8c;&#xfe8a;" horiz-adv-x="828" 
d="M707 0v354h-24q-28 0 -50 -11.5t-37 -32t-23 -47t-8 -55.5v-211q0 -65 -20.5 -118.5t-55.5 -90t-83 -56t-103 -19.5q-128 0 -194.5 86t-66.5 244v73h54v-73q0 -134 54.5 -203t153.5 -69q42 0 79.5 15t66 44.5t43.5 72t15 94.5v211q0 42 12.5 79t35.5 65.5t55.5 44
t71.5 15.5h80v-354h65v-58h-121zM45 167v74q0 43 26.5 72t68.5 29h36v-37h-36q-25 0 -42 -18.5t-17 -45.5v-36h95v-38h-131zM635 531v74q0 43 26.5 72t68.5 29h36v-37h-36q-25 0 -42 -18.5t-17 -45.5v-36h95v-38h-131z" />
    <glyph glyph-name="uniFE92_uniFE8A.liga" unicode="&#xfe92;&#xfe8a;" horiz-adv-x="828" 
d="M707 0v354h-24q-28 0 -50 -11.5t-37 -32t-23 -47t-8 -55.5v-211q0 -65 -20.5 -118.5t-55.5 -90t-83 -56t-103 -19.5q-128 0 -194.5 86t-66.5 244v73h54v-73q0 -134 54.5 -203t153.5 -69q42 0 79.5 15t66 44.5t43.5 72t15 94.5v211q0 42 12.5 79t35.5 65.5t55.5 44
t71.5 15.5h80v-354h65v-58h-121zM673 -152q0 44 43 44t43 -44q0 -43 -43 -43t-43 43zM45 167v74q0 43 26.5 72t68.5 29h36v-37h-36q-25 0 -42 -18.5t-17 -45.5v-36h95v-38h-131z" />
    <glyph glyph-name="uniFE98_uniFE8A.liga" unicode="&#xfe98;&#xfe8a;" horiz-adv-x="828" 
d="M707 0v354h-24q-28 0 -50 -11.5t-37 -32t-23 -47t-8 -55.5v-211q0 -65 -20.5 -118.5t-55.5 -90t-83 -56t-103 -19.5q-128 0 -194.5 86t-66.5 244v73h54v-73q0 -134 54.5 -203t153.5 -69q42 0 79.5 15t66 44.5t43.5 72t15 94.5v211q0 42 12.5 79t35.5 65.5t55.5 44
t71.5 15.5h80v-354h65v-58h-121zM586 615q0 41 41 41q18 0 28.5 -10.5t10.5 -30.5t-10.5 -29.5t-28.5 -9.5q-20 0 -30.5 9t-10.5 30zM688 615q0 20 10.5 30.5t28.5 10.5q41 0 41 -41q0 -21 -10.5 -30t-30.5 -9q-18 0 -28.5 9.5t-10.5 29.5zM45 167v74q0 43 26.5 72t68.5 29
h36v-37h-36q-25 0 -42 -18.5t-17 -45.5v-36h95v-38h-131z" />
    <glyph glyph-name="uniFE9C_uniFE8A.liga" unicode="&#xfe9c;&#xfe8a;" horiz-adv-x="828" 
d="M707 0v354h-24q-28 0 -50 -11.5t-37 -32t-23 -47t-8 -55.5v-211q0 -65 -20.5 -118.5t-55.5 -90t-83 -56t-103 -19.5q-128 0 -194.5 86t-66.5 244v73h54v-73q0 -134 54.5 -203t153.5 -69q42 0 79.5 15t66 44.5t43.5 72t15 94.5v211q0 42 12.5 79t35.5 65.5t55.5 44
t71.5 15.5h80v-354h65v-58h-121zM582 572q0 41 40 41q20 0 30 -10.5t10 -30.5q0 -19 -10 -29t-30 -10t-30 8.5t-10 30.5zM690 572q0 20 10 30.5t30 10.5q40 0 40 -41q0 -22 -10 -30.5t-30 -8.5t-30 10t-10 29zM635 674q0 24 10.5 32.5t30.5 8.5t30.5 -8.5t10.5 -32.5
q0 -20 -11.5 -30.5t-29.5 -10.5t-29.5 10.5t-11.5 30.5zM45 167v74q0 43 26.5 72t68.5 29h36v-37h-36q-25 0 -42 -18.5t-17 -45.5v-36h95v-38h-131z" />
    <glyph glyph-name="uniFEE8_uniFE8A.liga" unicode="&#xfee8;&#xfe8a;" horiz-adv-x="828" 
d="M707 0v354h-24q-28 0 -50 -11.5t-37 -32t-23 -47t-8 -55.5v-211q0 -65 -20.5 -118.5t-55.5 -90t-83 -56t-103 -19.5q-128 0 -194.5 86t-66.5 244v73h54v-73q0 -134 54.5 -203t153.5 -69q42 0 79.5 15t66 44.5t43.5 72t15 94.5v211q0 42 12.5 79t35.5 65.5t55.5 44
t71.5 15.5h80v-354h65v-58h-121zM675 615q0 44 43 44t43 -44q0 -43 -43 -43t-43 43zM45 167v74q0 43 26.5 72t68.5 29h36v-37h-36q-25 0 -42 -18.5t-17 -45.5v-36h95v-38h-131z" />
    <glyph glyph-name="uniFBE9_uniFE8A.liga" unicode="&#xfbe9;&#xfe8a;" horiz-adv-x="828" 
d="M707 0v354h-24q-28 0 -50 -11.5t-37 -32t-23 -47t-8 -55.5v-211q0 -65 -20.5 -118.5t-55.5 -90t-83 -56t-103 -19.5q-128 0 -194.5 86t-66.5 244v73h54v-73q0 -134 54.5 -203t153.5 -69q42 0 79.5 15t66 44.5t43.5 72t15 94.5v211q0 42 12.5 79t35.5 65.5t55.5 44
t71.5 15.5h80v-354h65v-58h-121zM45 167v74q0 43 26.5 72t68.5 29h36v-37h-36q-25 0 -42 -18.5t-17 -45.5v-36h95v-38h-131z" />
    <glyph glyph-name="uniFEF4_uniFE8A.liga" unicode="&#xfef4;&#xfe8a;" horiz-adv-x="861" 
d="M707 0v354h-24q-28 0 -50 -11.5t-37 -32t-23 -47t-8 -55.5v-211q0 -65 -20.5 -118.5t-55.5 -90t-83 -56t-103 -19.5q-128 0 -194.5 86t-66.5 244v73h54v-73q0 -134 54.5 -203t153.5 -69q42 0 79.5 15t66 44.5t43.5 72t15 94.5v211q0 42 12.5 79t35.5 65.5t55.5 44
t71.5 15.5h80v-354h98v-58h-154zM645 -153q0 41 41 41q18 0 28.5 -10.5t10.5 -30.5t-10.5 -29.5t-28.5 -9.5q-20 0 -30.5 9t-10.5 30zM747 -153q0 20 10.5 30.5t28.5 10.5q41 0 41 -41q0 -21 -10.5 -30t-30.5 -9q-18 0 -28.5 9.5t-10.5 29.5zM45 167v74q0 43 26.5 72
t68.5 29h36v-37h-36q-25 0 -42 -18.5t-17 -45.5v-36h95v-38h-131z" />
    <glyph glyph-name="uniFB69_uniFE8A.liga" unicode="&#xfb69;&#xfe8a;" horiz-adv-x="828" 
d="M707 0v354h-24q-28 0 -50 -11.5t-37 -32t-23 -47t-8 -55.5v-211q0 -65 -20.5 -118.5t-55.5 -90t-83 -56t-103 -19.5q-128 0 -194.5 86t-66.5 244v73h54v-73q0 -134 54.5 -203t153.5 -69q42 0 79.5 15t66 44.5t43.5 72t15 94.5v211q0 42 12.5 79t35.5 65.5t55.5 44
t71.5 15.5h80v-354h65v-58h-121zM574 533v33h34v128h33v-57q0 -4 -0.5 -12.5t-3.5 -15.5l3 -1l6 9q12 17 26.5 26.5t31.5 9.5q21 0 38.5 -14t17.5 -49v-57h-186zM728 586q0 14 -5.5 23.5t-18.5 9.5q-12 0 -19.5 -7t-17.5 -17l-22 -29h83v20zM45 167v74q0 43 26.5 72t68.5 29
h36v-37h-36q-25 0 -42 -18.5t-17 -45.5v-36h95v-38h-131z" />
    <glyph glyph-name="uniFB59_uniFE8A.liga" unicode="&#xfb59;&#xfe8a;" horiz-adv-x="861" 
d="M707 0v354h-24q-28 0 -50 -11.5t-37 -32t-23 -47t-8 -55.5v-211q0 -65 -20.5 -118.5t-55.5 -90t-83 -56t-103 -19.5q-128 0 -194.5 86t-66.5 244v73h54v-73q0 -134 54.5 -203t153.5 -69q42 0 79.5 15t66 44.5t43.5 72t15 94.5v211q0 42 12.5 79t35.5 65.5t55.5 44
t71.5 15.5h80v-354h98v-58h-154zM830 -136q0 -41 -40 -41q-20 0 -30 10.5t-10 30.5q0 19 10 29t30 10t30 -9t10 -30zM722 -136q0 -20 -10 -30.5t-30 -10.5q-40 0 -40 41q0 21 10 30t30 9t30 -10t10 -29zM777 -238q0 -24 -10.5 -32.5t-30.5 -8.5t-30.5 8.5t-10.5 32.5
q0 20 11.5 30.5t29.5 10.5t29.5 -10.5t11.5 -30.5zM45 167v74q0 43 26.5 72t68.5 29h36v-37h-36q-25 0 -42 -18.5t-17 -45.5v-36h95v-38h-131z" />
    <glyph glyph-name="uniFBFF_uniFE8A.liga" unicode="&#xfbff;&#xfe8a;" horiz-adv-x="861" 
d="M707 0v354h-24q-28 0 -50 -11.5t-37 -32t-23 -47t-8 -55.5v-211q0 -65 -20.5 -118.5t-55.5 -90t-83 -56t-103 -19.5q-128 0 -194.5 86t-66.5 244v73h54v-73q0 -134 54.5 -203t153.5 -69q42 0 79.5 15t66 44.5t43.5 72t15 94.5v211q0 42 12.5 79t35.5 65.5t55.5 44
t71.5 15.5h80v-354h98v-58h-154zM45 167v74q0 43 26.5 72t68.5 29h36v-37h-36q-25 0 -42 -18.5t-17 -45.5v-36h95v-38h-131zM645 -153q0 41 41 41q18 0 28.5 -10.5t10.5 -30.5t-10.5 -29.5t-28.5 -9.5q-20 0 -30.5 9t-10.5 30zM747 -153q0 20 10.5 30.5t28.5 10.5
q41 0 41 -41q0 -21 -10.5 -30t-30.5 -9q-18 0 -28.5 9.5t-10.5 29.5z" />
    <glyph glyph-name="uniFE8C_uniFEF0.liga" unicode="&#xfe8c;&#xfef0;" horiz-adv-x="828" 
d="M707 0v354h-24q-28 0 -50 -11.5t-37 -32t-23 -47t-8 -55.5v-211q0 -65 -20.5 -118.5t-55.5 -90t-83 -56t-103 -19.5q-128 0 -194.5 86t-66.5 244v73h54v-73q0 -134 54.5 -203t153.5 -69q42 0 79.5 15t66 44.5t43.5 72t15 94.5v211q0 42 12.5 79t35.5 65.5t55.5 44
t71.5 15.5h80v-354h65v-58h-121zM635 531v74q0 43 26.5 72t68.5 29h36v-37h-36q-25 0 -42 -18.5t-17 -45.5v-36h95v-38h-131z" />
    <glyph glyph-name="uniFE92_uniFEF0.liga" unicode="&#xfe92;&#xfef0;" horiz-adv-x="828" 
d="M707 0v354h-24q-28 0 -50 -11.5t-37 -32t-23 -47t-8 -55.5v-211q0 -65 -20.5 -118.5t-55.5 -90t-83 -56t-103 -19.5q-128 0 -194.5 86t-66.5 244v73h54v-73q0 -134 54.5 -203t153.5 -69q42 0 79.5 15t66 44.5t43.5 72t15 94.5v211q0 42 12.5 79t35.5 65.5t55.5 44
t71.5 15.5h80v-354h65v-58h-121zM673 -152q0 44 43 44t43 -44q0 -43 -43 -43t-43 43z" />
    <glyph glyph-name="uniFE98_uniFEF0.liga" unicode="&#xfe98;&#xfef0;" horiz-adv-x="828" 
d="M707 0v354h-24q-28 0 -50 -11.5t-37 -32t-23 -47t-8 -55.5v-211q0 -65 -20.5 -118.5t-55.5 -90t-83 -56t-103 -19.5q-128 0 -194.5 86t-66.5 244v73h54v-73q0 -134 54.5 -203t153.5 -69q42 0 79.5 15t66 44.5t43.5 72t15 94.5v211q0 42 12.5 79t35.5 65.5t55.5 44
t71.5 15.5h80v-354h65v-58h-121zM586 615q0 41 41 41q18 0 28.5 -10.5t10.5 -30.5t-10.5 -29.5t-28.5 -9.5q-20 0 -30.5 9t-10.5 30zM688 615q0 20 10.5 30.5t28.5 10.5q41 0 41 -41q0 -21 -10.5 -30t-30.5 -9q-18 0 -28.5 9.5t-10.5 29.5z" />
    <glyph glyph-name="uniFE9C_uniFEF0.liga" unicode="&#xfe9c;&#xfef0;" horiz-adv-x="828" 
d="M707 0v354h-24q-28 0 -50 -11.5t-37 -32t-23 -47t-8 -55.5v-211q0 -65 -20.5 -118.5t-55.5 -90t-83 -56t-103 -19.5q-128 0 -194.5 86t-66.5 244v73h54v-73q0 -134 54.5 -203t153.5 -69q42 0 79.5 15t66 44.5t43.5 72t15 94.5v211q0 42 12.5 79t35.5 65.5t55.5 44
t71.5 15.5h80v-354h65v-58h-121zM582 572q0 41 40 41q20 0 30 -10.5t10 -30.5q0 -19 -10 -29t-30 -10t-30 8.5t-10 30.5zM690 572q0 20 10 30.5t30 10.5q40 0 40 -41q0 -22 -10 -30.5t-30 -8.5t-30 10t-10 29zM635 674q0 24 10.5 32.5t30.5 8.5t30.5 -8.5t10.5 -32.5
q0 -20 -11.5 -30.5t-29.5 -10.5t-29.5 10.5t-11.5 30.5z" />
    <glyph glyph-name="uniFEE8_uniFEF0.liga" unicode="&#xfee8;&#xfef0;" horiz-adv-x="828" 
d="M707 0v354h-24q-28 0 -50 -11.5t-37 -32t-23 -47t-8 -55.5v-211q0 -65 -20.5 -118.5t-55.5 -90t-83 -56t-103 -19.5q-128 0 -194.5 86t-66.5 244v73h54v-73q0 -134 54.5 -203t153.5 -69q42 0 79.5 15t66 44.5t43.5 72t15 94.5v211q0 42 12.5 79t35.5 65.5t55.5 44
t71.5 15.5h80v-354h65v-58h-121zM675 615q0 44 43 44t43 -44q0 -43 -43 -43t-43 43z" />
    <glyph glyph-name="uniFBE9_uniFEF0.liga" unicode="&#xfbe9;&#xfef0;" horiz-adv-x="828" 
d="M707 0v354h-24q-28 0 -50 -11.5t-37 -32t-23 -47t-8 -55.5v-211q0 -65 -20.5 -118.5t-55.5 -90t-83 -56t-103 -19.5q-128 0 -194.5 86t-66.5 244v73h54v-73q0 -134 54.5 -203t153.5 -69q42 0 79.5 15t66 44.5t43.5 72t15 94.5v211q0 42 12.5 79t35.5 65.5t55.5 44
t71.5 15.5h80v-354h65v-58h-121z" />
    <glyph glyph-name="uniFEF4_uniFEF0.liga" unicode="&#xfef4;&#xfef0;" horiz-adv-x="861" 
d="M707 0v354h-24q-28 0 -50 -11.5t-37 -32t-23 -47t-8 -55.5v-211q0 -65 -20.5 -118.5t-55.5 -90t-83 -56t-103 -19.5q-128 0 -194.5 86t-66.5 244v73h54v-73q0 -134 54.5 -203t153.5 -69q42 0 79.5 15t66 44.5t43.5 72t15 94.5v211q0 42 12.5 79t35.5 65.5t55.5 44
t71.5 15.5h80v-354h98v-58h-154zM645 -153q0 41 41 41q18 0 28.5 -10.5t10.5 -30.5t-10.5 -29.5t-28.5 -9.5q-20 0 -30.5 9t-10.5 30zM747 -153q0 20 10.5 30.5t28.5 10.5q41 0 41 -41q0 -21 -10.5 -30t-30.5 -9q-18 0 -28.5 9.5t-10.5 29.5z" />
    <glyph glyph-name="uniFB69_uniFEF0.liga" unicode="&#xfb69;&#xfef0;" horiz-adv-x="828" 
d="M707 0v354h-24q-28 0 -50 -11.5t-37 -32t-23 -47t-8 -55.5v-211q0 -65 -20.5 -118.5t-55.5 -90t-83 -56t-103 -19.5q-128 0 -194.5 86t-66.5 244v73h54v-73q0 -134 54.5 -203t153.5 -69q42 0 79.5 15t66 44.5t43.5 72t15 94.5v211q0 42 12.5 79t35.5 65.5t55.5 44
t71.5 15.5h80v-354h65v-58h-121zM574 533v33h34v128h33v-57q0 -4 -0.5 -12.5t-3.5 -15.5l3 -1l6 9q12 17 26.5 26.5t31.5 9.5q21 0 38.5 -14t17.5 -49v-57h-186zM728 586q0 14 -5.5 23.5t-18.5 9.5q-12 0 -19.5 -7t-17.5 -17l-22 -29h83v20z" />
    <glyph glyph-name="uniFB59_uniFEF0.liga" unicode="&#xfb59;&#xfef0;" horiz-adv-x="861" 
d="M707 0v354h-24q-28 0 -50 -11.5t-37 -32t-23 -47t-8 -55.5v-211q0 -65 -20.5 -118.5t-55.5 -90t-83 -56t-103 -19.5q-128 0 -194.5 86t-66.5 244v73h54v-73q0 -134 54.5 -203t153.5 -69q42 0 79.5 15t66 44.5t43.5 72t15 94.5v211q0 42 12.5 79t35.5 65.5t55.5 44
t71.5 15.5h80v-354h98v-58h-154zM830 -136q0 -41 -40 -41q-20 0 -30 10.5t-10 30.5q0 19 10 29t30 10t30 -9t10 -30zM722 -136q0 -20 -10 -30.5t-30 -10.5q-40 0 -40 41q0 21 10 30t30 9t30 -10t10 -29zM777 -238q0 -24 -10.5 -32.5t-30.5 -8.5t-30.5 8.5t-10.5 32.5
q0 20 11.5 30.5t29.5 10.5t29.5 -10.5t11.5 -30.5z" />
    <glyph glyph-name="uniFBFF_uniFEF0.liga" unicode="&#xfbff;&#xfef0;" horiz-adv-x="861" 
d="M707 0v354h-24q-28 0 -50 -11.5t-37 -32t-23 -47t-8 -55.5v-211q0 -65 -20.5 -118.5t-55.5 -90t-83 -56t-103 -19.5q-128 0 -194.5 86t-66.5 244v73h54v-73q0 -134 54.5 -203t153.5 -69q42 0 79.5 15t66 44.5t43.5 72t15 94.5v211q0 42 12.5 79t35.5 65.5t55.5 44
t71.5 15.5h80v-354h98v-58h-154zM645 -153q0 41 41 41q18 0 28.5 -10.5t10.5 -30.5t-10.5 -29.5t-28.5 -9.5q-20 0 -30.5 9t-10.5 30zM747 -153q0 20 10.5 30.5t28.5 10.5q41 0 41 -41q0 -21 -10.5 -30t-30.5 -9q-18 0 -28.5 9.5t-10.5 29.5z" />
    <glyph glyph-name="uniFE8C_uniFEF2.liga" unicode="&#xfe8c;&#xfef2;" horiz-adv-x="828" 
d="M707 0v354h-24q-28 0 -50 -11.5t-37 -32t-23 -47t-8 -55.5v-211q0 -65 -20.5 -118.5t-55.5 -90t-83 -56t-103 -19.5q-128 0 -194.5 86t-66.5 244v73h54v-73q0 -134 54.5 -203t153.5 -69q42 0 79.5 15t66 44.5t43.5 72t15 94.5v211q0 42 12.5 79t35.5 65.5t55.5 44
t71.5 15.5h80v-354h65v-58h-121zM635 531v74q0 43 26.5 72t68.5 29h36v-37h-36q-25 0 -42 -18.5t-17 -45.5v-36h95v-38h-131zM229 -381q0 41 41 41q18 0 28.5 -10.5t10.5 -30.5t-10.5 -29.5t-28.5 -9.5q-20 0 -30.5 9t-10.5 30zM331 -381q0 20 10.5 30.5t28.5 10.5
q41 0 41 -41q0 -21 -10.5 -30t-30.5 -9q-18 0 -28.5 9.5t-10.5 29.5z" />
    <glyph glyph-name="uniFE92_uniFEF2.liga" unicode="&#xfe92;&#xfef2;" horiz-adv-x="828" 
d="M707 0v354h-24q-28 0 -50 -11.5t-37 -32t-23 -47t-8 -55.5v-211q0 -65 -20.5 -118.5t-55.5 -90t-83 -56t-103 -19.5q-128 0 -194.5 86t-66.5 244v73h54v-73q0 -134 54.5 -203t153.5 -69q42 0 79.5 15t66 44.5t43.5 72t15 94.5v211q0 42 12.5 79t35.5 65.5t55.5 44
t71.5 15.5h80v-354h65v-58h-121zM673 -152q0 44 43 44t43 -44q0 -43 -43 -43t-43 43zM229 -381q0 41 41 41q18 0 28.5 -10.5t10.5 -30.5t-10.5 -29.5t-28.5 -9.5q-20 0 -30.5 9t-10.5 30zM331 -381q0 20 10.5 30.5t28.5 10.5q41 0 41 -41q0 -21 -10.5 -30t-30.5 -9
q-18 0 -28.5 9.5t-10.5 29.5z" />
    <glyph glyph-name="uniFE98_uniFEF2.liga" unicode="&#xfe98;&#xfef2;" horiz-adv-x="828" 
d="M707 0v354h-24q-28 0 -50 -11.5t-37 -32t-23 -47t-8 -55.5v-211q0 -65 -20.5 -118.5t-55.5 -90t-83 -56t-103 -19.5q-128 0 -194.5 86t-66.5 244v73h54v-73q0 -134 54.5 -203t153.5 -69q42 0 79.5 15t66 44.5t43.5 72t15 94.5v211q0 42 12.5 79t35.5 65.5t55.5 44
t71.5 15.5h80v-354h65v-58h-121zM586 615q0 41 41 41q18 0 28.5 -10.5t10.5 -30.5t-10.5 -29.5t-28.5 -9.5q-20 0 -30.5 9t-10.5 30zM688 615q0 20 10.5 30.5t28.5 10.5q41 0 41 -41q0 -21 -10.5 -30t-30.5 -9q-18 0 -28.5 9.5t-10.5 29.5zM229 -381q0 41 41 41
q18 0 28.5 -10.5t10.5 -30.5t-10.5 -29.5t-28.5 -9.5q-20 0 -30.5 9t-10.5 30zM331 -381q0 20 10.5 30.5t28.5 10.5q41 0 41 -41q0 -21 -10.5 -30t-30.5 -9q-18 0 -28.5 9.5t-10.5 29.5z" />
    <glyph glyph-name="uniFE9C_uniFEF2.liga" unicode="&#xfe9c;&#xfef2;" horiz-adv-x="828" 
d="M707 0v354h-24q-28 0 -50 -11.5t-37 -32t-23 -47t-8 -55.5v-211q0 -65 -20.5 -118.5t-55.5 -90t-83 -56t-103 -19.5q-128 0 -194.5 86t-66.5 244v73h54v-73q0 -134 54.5 -203t153.5 -69q42 0 79.5 15t66 44.5t43.5 72t15 94.5v211q0 42 12.5 79t35.5 65.5t55.5 44
t71.5 15.5h80v-354h65v-58h-121zM582 572q0 41 40 41q20 0 30 -10.5t10 -30.5q0 -19 -10 -29t-30 -10t-30 8.5t-10 30.5zM690 572q0 20 10 30.5t30 10.5q40 0 40 -41q0 -22 -10 -30.5t-30 -8.5t-30 10t-10 29zM635 674q0 24 10.5 32.5t30.5 8.5t30.5 -8.5t10.5 -32.5
q0 -20 -11.5 -30.5t-29.5 -10.5t-29.5 10.5t-11.5 30.5zM229 -381q0 41 41 41q18 0 28.5 -10.5t10.5 -30.5t-10.5 -29.5t-28.5 -9.5q-20 0 -30.5 9t-10.5 30zM331 -381q0 20 10.5 30.5t28.5 10.5q41 0 41 -41q0 -21 -10.5 -30t-30.5 -9q-18 0 -28.5 9.5t-10.5 29.5z" />
    <glyph glyph-name="uniFEE8_uniFEF2.liga" unicode="&#xfee8;&#xfef2;" horiz-adv-x="828" 
d="M707 0v354h-24q-28 0 -50 -11.5t-37 -32t-23 -47t-8 -55.5v-211q0 -65 -20.5 -118.5t-55.5 -90t-83 -56t-103 -19.5q-128 0 -194.5 86t-66.5 244v73h54v-73q0 -134 54.5 -203t153.5 -69q42 0 79.5 15t66 44.5t43.5 72t15 94.5v211q0 42 12.5 79t35.5 65.5t55.5 44
t71.5 15.5h80v-354h65v-58h-121zM675 615q0 44 43 44t43 -44q0 -43 -43 -43t-43 43zM229 -381q0 41 41 41q18 0 28.5 -10.5t10.5 -30.5t-10.5 -29.5t-28.5 -9.5q-20 0 -30.5 9t-10.5 30zM331 -381q0 20 10.5 30.5t28.5 10.5q41 0 41 -41q0 -21 -10.5 -30t-30.5 -9
q-18 0 -28.5 9.5t-10.5 29.5z" />
    <glyph glyph-name="uniFBE9_uniFEF2.liga" unicode="&#xfbe9;&#xfef2;" horiz-adv-x="828" 
d="M707 0v354h-24q-28 0 -50 -11.5t-37 -32t-23 -47t-8 -55.5v-211q0 -65 -20.5 -118.5t-55.5 -90t-83 -56t-103 -19.5q-128 0 -194.5 86t-66.5 244v73h54v-73q0 -134 54.5 -203t153.5 -69q42 0 79.5 15t66 44.5t43.5 72t15 94.5v211q0 42 12.5 79t35.5 65.5t55.5 44
t71.5 15.5h80v-354h65v-58h-121zM229 -381q0 41 41 41q18 0 28.5 -10.5t10.5 -30.5t-10.5 -29.5t-28.5 -9.5q-20 0 -30.5 9t-10.5 30zM331 -381q0 20 10.5 30.5t28.5 10.5q41 0 41 -41q0 -21 -10.5 -30t-30.5 -9q-18 0 -28.5 9.5t-10.5 29.5z" />
    <glyph glyph-name="uniFEF4_uniFEF2.liga" unicode="&#xfef4;&#xfef2;" horiz-adv-x="861" 
d="M707 0v354h-24q-28 0 -50 -11.5t-37 -32t-23 -47t-8 -55.5v-211q0 -65 -20.5 -118.5t-55.5 -90t-83 -56t-103 -19.5q-128 0 -194.5 86t-66.5 244v73h54v-73q0 -134 54.5 -203t153.5 -69q42 0 79.5 15t66 44.5t43.5 72t15 94.5v211q0 42 12.5 79t35.5 65.5t55.5 44
t71.5 15.5h80v-354h98v-58h-154zM229 -381q0 41 41 41q18 0 28.5 -10.5t10.5 -30.5t-10.5 -29.5t-28.5 -9.5q-20 0 -30.5 9t-10.5 30zM331 -381q0 20 10.5 30.5t28.5 10.5q41 0 41 -41q0 -21 -10.5 -30t-30.5 -9q-18 0 -28.5 9.5t-10.5 29.5zM645 -153q0 41 41 41
q18 0 28.5 -10.5t10.5 -30.5t-10.5 -29.5t-28.5 -9.5q-20 0 -30.5 9t-10.5 30zM747 -153q0 20 10.5 30.5t28.5 10.5q41 0 41 -41q0 -21 -10.5 -30t-30.5 -9q-18 0 -28.5 9.5t-10.5 29.5z" />
    <glyph glyph-name="uniFB69_uniFEF2.liga" unicode="&#xfb69;&#xfef2;" horiz-adv-x="828" 
d="M707 0v354h-24q-28 0 -50 -11.5t-37 -32t-23 -47t-8 -55.5v-211q0 -65 -20.5 -118.5t-55.5 -90t-83 -56t-103 -19.5q-128 0 -194.5 86t-66.5 244v73h54v-73q0 -134 54.5 -203t153.5 -69q42 0 79.5 15t66 44.5t43.5 72t15 94.5v211q0 42 12.5 79t35.5 65.5t55.5 44
t71.5 15.5h80v-354h65v-58h-121zM229 -381q0 41 41 41q18 0 28.5 -10.5t10.5 -30.5t-10.5 -29.5t-28.5 -9.5q-20 0 -30.5 9t-10.5 30zM331 -381q0 20 10.5 30.5t28.5 10.5q41 0 41 -41q0 -21 -10.5 -30t-30.5 -9q-18 0 -28.5 9.5t-10.5 29.5zM574 533v33h34v128h33v-57
q0 -4 -0.5 -12.5t-3.5 -15.5l3 -1l6 9q12 17 26.5 26.5t31.5 9.5q21 0 38.5 -14t17.5 -49v-57h-186zM728 586q0 14 -5.5 23.5t-18.5 9.5q-12 0 -19.5 -7t-17.5 -17l-22 -29h83v20z" />
    <glyph glyph-name="uniFB59_uniFEF2.liga" unicode="&#xfb59;&#xfef2;" horiz-adv-x="861" 
d="M707 0v354h-24q-28 0 -50 -11.5t-37 -32t-23 -47t-8 -55.5v-211q0 -65 -20.5 -118.5t-55.5 -90t-83 -56t-103 -19.5q-128 0 -194.5 86t-66.5 244v73h54v-73q0 -134 54.5 -203t153.5 -69q42 0 79.5 15t66 44.5t43.5 72t15 94.5v211q0 42 12.5 79t35.5 65.5t55.5 44
t71.5 15.5h80v-354h98v-58h-154zM830 -136q0 -41 -40 -41q-20 0 -30 10.5t-10 30.5q0 19 10 29t30 10t30 -9t10 -30zM722 -136q0 -20 -10 -30.5t-30 -10.5q-40 0 -40 41q0 21 10 30t30 9t30 -10t10 -29zM777 -238q0 -24 -10.5 -32.5t-30.5 -8.5t-30.5 8.5t-10.5 32.5
q0 20 11.5 30.5t29.5 10.5t29.5 -10.5t11.5 -30.5zM229 -381q0 41 41 41q18 0 28.5 -10.5t10.5 -30.5t-10.5 -29.5t-28.5 -9.5q-20 0 -30.5 9t-10.5 30zM331 -381q0 20 10.5 30.5t28.5 10.5q41 0 41 -41q0 -21 -10.5 -30t-30.5 -9q-18 0 -28.5 9.5t-10.5 29.5z" />
    <glyph glyph-name="uniFBFF_uniFEF2.liga" unicode="&#xfbff;&#xfef2;" horiz-adv-x="861" 
d="M707 0v354h-24q-28 0 -50 -11.5t-37 -32t-23 -47t-8 -55.5v-211q0 -65 -20.5 -118.5t-55.5 -90t-83 -56t-103 -19.5q-128 0 -194.5 86t-66.5 244v73h54v-73q0 -134 54.5 -203t153.5 -69q42 0 79.5 15t66 44.5t43.5 72t15 94.5v211q0 42 12.5 79t35.5 65.5t55.5 44
t71.5 15.5h80v-354h98v-58h-154zM229 -381q0 41 41 41q18 0 28.5 -10.5t10.5 -30.5t-10.5 -29.5t-28.5 -9.5q-20 0 -30.5 9t-10.5 30zM331 -381q0 20 10.5 30.5t28.5 10.5q41 0 41 -41q0 -21 -10.5 -30t-30.5 -9q-18 0 -28.5 9.5t-10.5 29.5zM645 -153q0 41 41 41
q18 0 28.5 -10.5t10.5 -30.5t-10.5 -29.5t-28.5 -9.5q-20 0 -30.5 9t-10.5 30zM747 -153q0 20 10.5 30.5t28.5 10.5q41 0 41 -41q0 -21 -10.5 -30t-30.5 -9q-18 0 -28.5 9.5t-10.5 29.5z" />
    <glyph glyph-name="uniFE8C_uniFBFD.liga" unicode="&#xfe8c;&#xfbfd;" horiz-adv-x="828" 
d="M707 0v354h-24q-28 0 -50 -11.5t-37 -32t-23 -47t-8 -55.5v-211q0 -65 -20.5 -118.5t-55.5 -90t-83 -56t-103 -19.5q-128 0 -194.5 86t-66.5 244v73h54v-73q0 -134 54.5 -203t153.5 -69q42 0 79.5 15t66 44.5t43.5 72t15 94.5v211q0 42 12.5 79t35.5 65.5t55.5 44
t71.5 15.5h80v-354h65v-58h-121zM635 531v74q0 43 26.5 72t68.5 29h36v-37h-36q-25 0 -42 -18.5t-17 -45.5v-36h95v-38h-131z" />
    <glyph glyph-name="uniFE92_uniFBFD.liga" unicode="&#xfe92;&#xfbfd;" horiz-adv-x="828" 
d="M707 0v354h-24q-28 0 -50 -11.5t-37 -32t-23 -47t-8 -55.5v-211q0 -65 -20.5 -118.5t-55.5 -90t-83 -56t-103 -19.5q-128 0 -194.5 86t-66.5 244v73h54v-73q0 -134 54.5 -203t153.5 -69q42 0 79.5 15t66 44.5t43.5 72t15 94.5v211q0 42 12.5 79t35.5 65.5t55.5 44
t71.5 15.5h80v-354h65v-58h-121zM673 -152q0 44 43 44t43 -44q0 -43 -43 -43t-43 43z" />
    <glyph glyph-name="uniFE98_uniFBFD.liga" unicode="&#xfe98;&#xfbfd;" horiz-adv-x="828" 
d="M707 0v354h-24q-28 0 -50 -11.5t-37 -32t-23 -47t-8 -55.5v-211q0 -65 -20.5 -118.5t-55.5 -90t-83 -56t-103 -19.5q-128 0 -194.5 86t-66.5 244v73h54v-73q0 -134 54.5 -203t153.5 -69q42 0 79.5 15t66 44.5t43.5 72t15 94.5v211q0 42 12.5 79t35.5 65.5t55.5 44
t71.5 15.5h80v-354h65v-58h-121zM586 615q0 41 41 41q18 0 28.5 -10.5t10.5 -30.5t-10.5 -29.5t-28.5 -9.5q-20 0 -30.5 9t-10.5 30zM688 615q0 20 10.5 30.5t28.5 10.5q41 0 41 -41q0 -21 -10.5 -30t-30.5 -9q-18 0 -28.5 9.5t-10.5 29.5z" />
    <glyph glyph-name="uniFE9C_uniFBFD.liga" unicode="&#xfe9c;&#xfbfd;" horiz-adv-x="828" 
d="M707 0v354h-24q-28 0 -50 -11.5t-37 -32t-23 -47t-8 -55.5v-211q0 -65 -20.5 -118.5t-55.5 -90t-83 -56t-103 -19.5q-128 0 -194.5 86t-66.5 244v73h54v-73q0 -134 54.5 -203t153.5 -69q42 0 79.5 15t66 44.5t43.5 72t15 94.5v211q0 42 12.5 79t35.5 65.5t55.5 44
t71.5 15.5h80v-354h65v-58h-121zM582 572q0 41 40 41q20 0 30 -10.5t10 -30.5q0 -19 -10 -29t-30 -10t-30 8.5t-10 30.5zM690 572q0 20 10 30.5t30 10.5q40 0 40 -41q0 -22 -10 -30.5t-30 -8.5t-30 10t-10 29zM635 674q0 24 10.5 32.5t30.5 8.5t30.5 -8.5t10.5 -32.5
q0 -20 -11.5 -30.5t-29.5 -10.5t-29.5 10.5t-11.5 30.5z" />
    <glyph glyph-name="uniFEE8_uniFBFD.liga" unicode="&#xfee8;&#xfbfd;" horiz-adv-x="828" 
d="M707 0v354h-24q-28 0 -50 -11.5t-37 -32t-23 -47t-8 -55.5v-211q0 -65 -20.5 -118.5t-55.5 -90t-83 -56t-103 -19.5q-128 0 -194.5 86t-66.5 244v73h54v-73q0 -134 54.5 -203t153.5 -69q42 0 79.5 15t66 44.5t43.5 72t15 94.5v211q0 42 12.5 79t35.5 65.5t55.5 44
t71.5 15.5h80v-354h65v-58h-121zM675 615q0 44 43 44t43 -44q0 -43 -43 -43t-43 43z" />
    <glyph glyph-name="uniFBE9_uniFBFD.liga" unicode="&#xfbe9;&#xfbfd;" horiz-adv-x="828" 
d="M707 0v354h-24q-28 0 -50 -11.5t-37 -32t-23 -47t-8 -55.5v-211q0 -65 -20.5 -118.5t-55.5 -90t-83 -56t-103 -19.5q-128 0 -194.5 86t-66.5 244v73h54v-73q0 -134 54.5 -203t153.5 -69q42 0 79.5 15t66 44.5t43.5 72t15 94.5v211q0 42 12.5 79t35.5 65.5t55.5 44
t71.5 15.5h80v-354h65v-58h-121z" />
    <glyph glyph-name="uniFEF4_uniFBFD.liga" unicode="&#xfef4;&#xfbfd;" horiz-adv-x="861" 
d="M707 0v354h-24q-28 0 -50 -11.5t-37 -32t-23 -47t-8 -55.5v-211q0 -65 -20.5 -118.5t-55.5 -90t-83 -56t-103 -19.5q-128 0 -194.5 86t-66.5 244v73h54v-73q0 -134 54.5 -203t153.5 -69q42 0 79.5 15t66 44.5t43.5 72t15 94.5v211q0 42 12.5 79t35.5 65.5t55.5 44
t71.5 15.5h80v-354h98v-58h-154zM645 -153q0 41 41 41q18 0 28.5 -10.5t10.5 -30.5t-10.5 -29.5t-28.5 -9.5q-20 0 -30.5 9t-10.5 30zM747 -153q0 20 10.5 30.5t28.5 10.5q41 0 41 -41q0 -21 -10.5 -30t-30.5 -9q-18 0 -28.5 9.5t-10.5 29.5z" />
    <glyph glyph-name="uniFB69_uniFBFD.liga" unicode="&#xfb69;&#xfbfd;" horiz-adv-x="828" 
d="M707 0v354h-24q-28 0 -50 -11.5t-37 -32t-23 -47t-8 -55.5v-211q0 -65 -20.5 -118.5t-55.5 -90t-83 -56t-103 -19.5q-128 0 -194.5 86t-66.5 244v73h54v-73q0 -134 54.5 -203t153.5 -69q42 0 79.5 15t66 44.5t43.5 72t15 94.5v211q0 42 12.5 79t35.5 65.5t55.5 44
t71.5 15.5h80v-354h65v-58h-121zM574 533v33h34v128h33v-57q0 -4 -0.5 -12.5t-3.5 -15.5l3 -1l6 9q12 17 26.5 26.5t31.5 9.5q21 0 38.5 -14t17.5 -49v-57h-186zM728 586q0 14 -5.5 23.5t-18.5 9.5q-12 0 -19.5 -7t-17.5 -17l-22 -29h83v20z" />
    <glyph glyph-name="uniFB59_uniFBFD.liga" unicode="&#xfb59;&#xfbfd;" horiz-adv-x="861" 
d="M707 0v354h-24q-28 0 -50 -11.5t-37 -32t-23 -47t-8 -55.5v-211q0 -65 -20.5 -118.5t-55.5 -90t-83 -56t-103 -19.5q-128 0 -194.5 86t-66.5 244v73h54v-73q0 -134 54.5 -203t153.5 -69q42 0 79.5 15t66 44.5t43.5 72t15 94.5v211q0 42 12.5 79t35.5 65.5t55.5 44
t71.5 15.5h80v-354h98v-58h-154zM830 -136q0 -41 -40 -41q-20 0 -30 10.5t-10 30.5q0 19 10 29t30 10t30 -9t10 -30zM722 -136q0 -20 -10 -30.5t-30 -10.5q-40 0 -40 41q0 21 10 30t30 9t30 -10t10 -29zM777 -238q0 -24 -10.5 -32.5t-30.5 -8.5t-30.5 8.5t-10.5 32.5
q0 20 11.5 30.5t29.5 10.5t29.5 -10.5t11.5 -30.5z" />
    <glyph glyph-name="uniFBFF_uniFBFD.liga" unicode="&#xfbff;&#xfbfd;" horiz-adv-x="861" 
d="M707 0v354h-24q-28 0 -50 -11.5t-37 -32t-23 -47t-8 -55.5v-211q0 -65 -20.5 -118.5t-55.5 -90t-83 -56t-103 -19.5q-128 0 -194.5 86t-66.5 244v73h54v-73q0 -134 54.5 -203t153.5 -69q42 0 79.5 15t66 44.5t43.5 72t15 94.5v211q0 42 12.5 79t35.5 65.5t55.5 44
t71.5 15.5h80v-354h98v-58h-154zM645 -153q0 41 41 41q18 0 28.5 -10.5t10.5 -30.5t-10.5 -29.5t-28.5 -9.5q-20 0 -30.5 9t-10.5 30zM747 -153q0 20 10.5 30.5t28.5 10.5q41 0 41 -41q0 -21 -10.5 -30t-30.5 -9q-18 0 -28.5 9.5t-10.5 29.5z" />
    <glyph glyph-name="uniFEEC_uniFE8A.liga" unicode="&#xfeec;&#xfe8a;" 
d="M1007 0q-50 0 -80 -26.5t-30 -65.5q0 -32 10.5 -69t45.5 -73l-34 -45q-43 14 -81.5 40t-67.5 61.5t-46 82t-17 107.5v342h-24q-28 0 -50 -11.5t-37 -32t-23 -47t-8 -55.5v-212q0 -64 -20.5 -117.5t-55.5 -90t-83 -56t-102 -19.5q-129 0 -195.5 86t-66.5 243v74h54v-71
q0 -135 54.5 -204.5t153.5 -69.5q42 0 79.5 15t66 44.5t43.5 72t15 94.5v211q0 42 12.5 79t35.5 65.5t55.5 44t71.5 15.5h80v-392q0 -44 9 -77t23 -58t32 -43t38 -33l5 4q-13 18 -20.5 48.5t-7.5 54.5q0 34 13 61.5t36 45t53.5 26.5t62.5 9v-58zM45 167v74q0 43 26.5 72
t68.5 29h36v-37h-36q-25 0 -42 -18.5t-17 -45.5v-36h95v-38h-131z" />
    <glyph glyph-name="uniFEEC_uniFEF0.liga" unicode="&#xfeec;&#xfef0;" 
d="M1007 0q-50 0 -80 -26.5t-30 -65.5q0 -32 10.5 -69t45.5 -73l-34 -45q-43 14 -81.5 40t-67.5 61.5t-46 82t-17 107.5v342h-24q-28 0 -50 -11.5t-37 -32t-23 -47t-8 -55.5v-212q0 -64 -20.5 -117.5t-55.5 -90t-83 -56t-102 -19.5q-129 0 -195.5 86t-66.5 243v74h54v-71
q0 -135 54.5 -204.5t153.5 -69.5q42 0 79.5 15t66 44.5t43.5 72t15 94.5v211q0 42 12.5 79t35.5 65.5t55.5 44t71.5 15.5h80v-392q0 -44 9 -77t23 -58t32 -43t38 -33l5 4q-13 18 -20.5 48.5t-7.5 54.5q0 34 13 61.5t36 45t53.5 26.5t62.5 9v-58z" />
    <glyph glyph-name="uniFEEC_uniFEF2.liga" unicode="&#xfeec;&#xfef2;" 
d="M1007 0q-50 0 -80 -26.5t-30 -65.5q0 -32 10.5 -69t45.5 -73l-34 -45q-43 14 -81.5 40t-67.5 61.5t-46 82t-17 107.5v342h-24q-28 0 -50 -11.5t-37 -32t-23 -47t-8 -55.5v-212q0 -64 -20.5 -117.5t-55.5 -90t-83 -56t-102 -19.5q-129 0 -195.5 86t-66.5 243v74h54v-71
q0 -135 54.5 -204.5t153.5 -69.5q42 0 79.5 15t66 44.5t43.5 72t15 94.5v211q0 42 12.5 79t35.5 65.5t55.5 44t71.5 15.5h80v-392q0 -44 9 -77t23 -58t32 -43t38 -33l5 4q-13 18 -20.5 48.5t-7.5 54.5q0 34 13 61.5t36 45t53.5 26.5t62.5 9v-58zM229 -381q0 41 41 41
q18 0 28.5 -10.5t10.5 -30.5t-10.5 -29.5t-28.5 -9.5q-20 0 -30.5 9t-10.5 30zM331 -381q0 20 10.5 30.5t28.5 10.5q41 0 41 -41q0 -21 -10.5 -30t-30.5 -9q-18 0 -28.5 9.5t-10.5 29.5z" />
    <glyph glyph-name="uniFEEC_uniFBFD.liga" unicode="&#xfeec;&#xfbfd;" 
d="M1007 0q-50 0 -80 -26.5t-30 -65.5q0 -32 10.5 -69t45.5 -73l-34 -45q-43 14 -81.5 40t-67.5 61.5t-46 82t-17 107.5v342h-24q-28 0 -50 -11.5t-37 -32t-23 -47t-8 -55.5v-212q0 -64 -20.5 -117.5t-55.5 -90t-83 -56t-102 -19.5q-129 0 -195.5 86t-66.5 243v74h54v-71
q0 -135 54.5 -204.5t153.5 -69.5q42 0 79.5 15t66 44.5t43.5 72t15 94.5v211q0 42 12.5 79t35.5 65.5t55.5 44t71.5 15.5h80v-392q0 -44 9 -77t23 -58t32 -43t38 -33l5 4q-13 18 -20.5 48.5t-7.5 54.5q0 34 13 61.5t36 45t53.5 26.5t62.5 9v-58z" />
    <glyph glyph-name="uniFEEC_uniFE8C_uniFE8A.liga" unicode="&#xfeec;&#xfe8c;&#xfe8a;" 
d="M1007 0q-50 0 -80 -26.5t-30 -65.5q0 -32 10.5 -69t45.5 -73l-34 -45q-43 14 -81.5 40t-67.5 61.5t-46 82t-17 107.5v342h-24q-28 0 -50 -11.5t-37 -32t-23 -47t-8 -55.5v-212q0 -64 -20.5 -117.5t-55.5 -90t-83 -56t-102 -19.5q-129 0 -195.5 86t-66.5 243v74h54v-71
q0 -135 54.5 -204.5t153.5 -69.5q42 0 79.5 15t66 44.5t43.5 72t15 94.5v211q0 42 12.5 79t35.5 65.5t55.5 44t71.5 15.5h80v-392q0 -44 9 -77t23 -58t32 -43t38 -33l5 4q-13 18 -20.5 48.5t-7.5 54.5q0 34 13 61.5t36 45t53.5 26.5t62.5 9v-58zM635 531v74q0 43 26.5 72
t68.5 29h36v-37h-36q-25 0 -42 -18.5t-17 -45.5v-36h95v-38h-131zM45 167v74q0 43 26.5 72t68.5 29h36v-37h-36q-25 0 -42 -18.5t-17 -45.5v-36h95v-38h-131z" />
    <glyph glyph-name="uniFEEC_uniFE92_uniFE8A.liga" unicode="&#xfeec;&#xfe92;&#xfe8a;" 
d="M1007 0q-50 0 -80 -26.5t-30 -65.5q0 -32 10.5 -69t45.5 -73l-34 -45q-43 14 -81.5 40t-67.5 61.5t-46 82t-17 107.5v342h-24q-28 0 -50 -11.5t-37 -32t-23 -47t-8 -55.5v-212q0 -64 -20.5 -117.5t-55.5 -90t-83 -56t-102 -19.5q-129 0 -195.5 86t-66.5 243v74h54v-71
q0 -135 54.5 -204.5t153.5 -69.5q42 0 79.5 15t66 44.5t43.5 72t15 94.5v211q0 42 12.5 79t35.5 65.5t55.5 44t71.5 15.5h80v-392q0 -44 9 -77t23 -58t32 -43t38 -33l5 4q-13 18 -20.5 48.5t-7.5 54.5q0 34 13 61.5t36 45t53.5 26.5t62.5 9v-58zM605 -169q0 42 42 42t42 -42
t-42 -42t-42 42zM45 167v74q0 43 26.5 72t68.5 29h36v-37h-36q-25 0 -42 -18.5t-17 -45.5v-36h95v-38h-131z" />
    <glyph glyph-name="uniFEEC_uniFE98_uniFE8A.liga" unicode="&#xfeec;&#xfe98;&#xfe8a;" 
d="M1007 0q-50 0 -80 -26.5t-30 -65.5q0 -32 10.5 -69t45.5 -73l-34 -45q-43 14 -81.5 40t-67.5 61.5t-46 82t-17 107.5v342h-24q-28 0 -50 -11.5t-37 -32t-23 -47t-8 -55.5v-212q0 -64 -20.5 -117.5t-55.5 -90t-83 -56t-102 -19.5q-129 0 -195.5 86t-66.5 243v74h54v-71
q0 -135 54.5 -204.5t153.5 -69.5q42 0 79.5 15t66 44.5t43.5 72t15 94.5v211q0 42 12.5 79t35.5 65.5t55.5 44t71.5 15.5h80v-392q0 -44 9 -77t23 -58t32 -43t38 -33l5 4q-13 18 -20.5 48.5t-7.5 54.5q0 34 13 61.5t36 45t53.5 26.5t62.5 9v-58zM586 615q0 41 41 41
q18 0 28.5 -10.5t10.5 -30.5t-10.5 -29.5t-28.5 -9.5q-20 0 -30.5 9t-10.5 30zM688 615q0 20 10.5 30.5t28.5 10.5q41 0 41 -41q0 -21 -10.5 -30t-30.5 -9q-18 0 -28.5 9.5t-10.5 29.5zM45 167v74q0 43 26.5 72t68.5 29h36v-37h-36q-25 0 -42 -18.5t-17 -45.5v-36h95v-38
h-131z" />
    <glyph glyph-name="uniFEEC_uniFE9C_uniFE8A.liga" unicode="&#xfeec;&#xfe9c;&#xfe8a;" 
d="M1007 0q-50 0 -80 -26.5t-30 -65.5q0 -32 10.5 -69t45.5 -73l-34 -45q-43 14 -81.5 40t-67.5 61.5t-46 82t-17 107.5v342h-24q-28 0 -50 -11.5t-37 -32t-23 -47t-8 -55.5v-212q0 -64 -20.5 -117.5t-55.5 -90t-83 -56t-102 -19.5q-129 0 -195.5 86t-66.5 243v74h54v-71
q0 -135 54.5 -204.5t153.5 -69.5q42 0 79.5 15t66 44.5t43.5 72t15 94.5v211q0 42 12.5 79t35.5 65.5t55.5 44t71.5 15.5h80v-392q0 -44 9 -77t23 -58t32 -43t38 -33l5 4q-13 18 -20.5 48.5t-7.5 54.5q0 34 13 61.5t36 45t53.5 26.5t62.5 9v-58zM582 572q0 41 40 41
q20 0 30 -10.5t10 -30.5q0 -19 -10 -29t-30 -10t-30 8.5t-10 30.5zM690 572q0 20 10 30.5t30 10.5q40 0 40 -41q0 -22 -10 -30.5t-30 -8.5t-30 10t-10 29zM635 674q0 24 10.5 32.5t30.5 8.5t30.5 -8.5t10.5 -32.5q0 -20 -11.5 -30.5t-29.5 -10.5t-29.5 10.5t-11.5 30.5z
M45 167v74q0 43 26.5 72t68.5 29h36v-37h-36q-25 0 -42 -18.5t-17 -45.5v-36h95v-38h-131z" />
    <glyph glyph-name="uniFEEC_uniFEE8_uniFE8A.liga" unicode="&#xfeec;&#xfee8;&#xfe8a;" 
d="M1007 0q-50 0 -80 -26.5t-30 -65.5q0 -32 10.5 -69t45.5 -73l-34 -45q-43 14 -81.5 40t-67.5 61.5t-46 82t-17 107.5v342h-24q-28 0 -50 -11.5t-37 -32t-23 -47t-8 -55.5v-212q0 -64 -20.5 -117.5t-55.5 -90t-83 -56t-102 -19.5q-129 0 -195.5 86t-66.5 243v74h54v-71
q0 -135 54.5 -204.5t153.5 -69.5q42 0 79.5 15t66 44.5t43.5 72t15 94.5v211q0 42 12.5 79t35.5 65.5t55.5 44t71.5 15.5h80v-392q0 -44 9 -77t23 -58t32 -43t38 -33l5 4q-13 18 -20.5 48.5t-7.5 54.5q0 34 13 61.5t36 45t53.5 26.5t62.5 9v-58zM675 615q0 44 43 44t43 -44
q0 -43 -43 -43t-43 43zM45 167v74q0 43 26.5 72t68.5 29h36v-37h-36q-25 0 -42 -18.5t-17 -45.5v-36h95v-38h-131z" />
    <glyph glyph-name="uniFEEC_uniFBE9_uniFE8A.liga" unicode="&#xfeec;&#xfbe9;&#xfe8a;" 
d="M1007 0q-50 0 -80 -26.5t-30 -65.5q0 -32 10.5 -69t45.5 -73l-34 -45q-43 14 -81.5 40t-67.5 61.5t-46 82t-17 107.5v342h-24q-28 0 -50 -11.5t-37 -32t-23 -47t-8 -55.5v-212q0 -64 -20.5 -117.5t-55.5 -90t-83 -56t-102 -19.5q-129 0 -195.5 86t-66.5 243v74h54v-71
q0 -135 54.5 -204.5t153.5 -69.5q42 0 79.5 15t66 44.5t43.5 72t15 94.5v211q0 42 12.5 79t35.5 65.5t55.5 44t71.5 15.5h80v-392q0 -44 9 -77t23 -58t32 -43t38 -33l5 4q-13 18 -20.5 48.5t-7.5 54.5q0 34 13 61.5t36 45t53.5 26.5t62.5 9v-58zM45 167v74q0 43 26.5 72
t68.5 29h36v-37h-36q-25 0 -42 -18.5t-17 -45.5v-36h95v-38h-131z" />
    <glyph glyph-name="uniFEEC_uniFEF4_uniFE8A.liga" unicode="&#xfeec;&#xfef4;&#xfe8a;" 
d="M1007 0q-50 0 -80 -26.5t-30 -65.5q0 -32 10.5 -69t45.5 -73l-34 -45q-43 14 -81.5 40t-67.5 61.5t-46 82t-17 107.5v342h-24q-28 0 -50 -11.5t-37 -32t-23 -47t-8 -55.5v-212q0 -64 -20.5 -117.5t-55.5 -90t-83 -56t-102 -19.5q-129 0 -195.5 86t-66.5 243v74h54v-71
q0 -135 54.5 -204.5t153.5 -69.5q42 0 79.5 15t66 44.5t43.5 72t15 94.5v211q0 42 12.5 79t35.5 65.5t55.5 44t71.5 15.5h80v-392q0 -44 9 -77t23 -58t32 -43t38 -33l5 4q-13 18 -20.5 48.5t-7.5 54.5q0 34 13 61.5t36 45t53.5 26.5t62.5 9v-58zM45 167v74q0 43 26.5 72
t68.5 29h36v-37h-36q-25 0 -42 -18.5t-17 -45.5v-36h95v-38h-131zM560 -202q0 39 39 39q19 0 28.5 -9.5t9.5 -29.5t-9.5 -29t-28.5 -9t-29 8.5t-10 29.5zM659 -202q0 20 9.5 29.5t28.5 9.5q39 0 39 -39q0 -21 -10 -29.5t-29 -8.5t-28.5 9t-9.5 29z" />
    <glyph glyph-name="uniFEEC_uniFB69_uniFE8A.liga" unicode="&#xfeec;&#xfb69;&#xfe8a;" 
d="M1007 0q-50 0 -80 -26.5t-30 -65.5q0 -32 10.5 -69t45.5 -73l-34 -45q-43 14 -81.5 40t-67.5 61.5t-46 82t-17 107.5v342h-24q-28 0 -50 -11.5t-37 -32t-23 -47t-8 -55.5v-212q0 -64 -20.5 -117.5t-55.5 -90t-83 -56t-102 -19.5q-129 0 -195.5 86t-66.5 243v74h54v-71
q0 -135 54.5 -204.5t153.5 -69.5q42 0 79.5 15t66 44.5t43.5 72t15 94.5v211q0 42 12.5 79t35.5 65.5t55.5 44t71.5 15.5h80v-392q0 -44 9 -77t23 -58t32 -43t38 -33l5 4q-13 18 -20.5 48.5t-7.5 54.5q0 34 13 61.5t36 45t53.5 26.5t62.5 9v-58zM45 167v74q0 43 26.5 72
t68.5 29h36v-37h-36q-25 0 -42 -18.5t-17 -45.5v-36h95v-38h-131zM574 533v33h34v128h33v-57q0 -4 -0.5 -12.5t-3.5 -15.5l3 -1l6 9q12 17 26.5 26.5t31.5 9.5q21 0 38.5 -14t17.5 -49v-57h-186zM728 586q0 14 -5.5 23.5t-18.5 9.5q-12 0 -19.5 -7t-17.5 -17l-22 -29h83v20z
" />
    <glyph glyph-name="uniFEEC_uniFB59_uniFE8A.liga" unicode="&#xfeec;&#xfb59;&#xfe8a;" 
d="M1007 0q-50 0 -80 -26.5t-30 -65.5q0 -32 10.5 -69t45.5 -73l-34 -45q-43 14 -81.5 40t-67.5 61.5t-46 82t-17 107.5v342h-24q-28 0 -50 -11.5t-37 -32t-23 -47t-8 -55.5v-212q0 -64 -20.5 -117.5t-55.5 -90t-83 -56t-102 -19.5q-129 0 -195.5 86t-66.5 243v74h54v-71
q0 -135 54.5 -204.5t153.5 -69.5q42 0 79.5 15t66 44.5t43.5 72t15 94.5v211q0 42 12.5 79t35.5 65.5t55.5 44t71.5 15.5h80v-392q0 -44 9 -77t23 -58t32 -43t38 -33l5 4q-13 18 -20.5 48.5t-7.5 54.5q0 34 13 61.5t36 45t53.5 26.5t62.5 9v-58zM45 167v74q0 43 26.5 72
t68.5 29h36v-37h-36q-25 0 -42 -18.5t-17 -45.5v-36h95v-38h-131zM739 -203q0 -41 -40 -41q-18 0 -28 10.5t-10 30.5q0 18 10 28t28 10q20 0 30 -8.5t10 -29.5zM635 -203q0 -20 -10 -30.5t-28 -10.5q-40 0 -40 41q0 21 10 29.5t30 8.5q18 0 28 -10t10 -28zM688 -303
q0 -22 -10 -31t-30 -9t-30 9t-10 31q0 20 11 30.5t29 10.5t29 -10.5t11 -30.5z" />
    <glyph glyph-name="uniFEEC_uniFBFF_uniFE8A.liga" unicode="&#xfeec;&#xfbff;&#xfe8a;" 
d="M1007 0q-50 0 -80 -26.5t-30 -65.5q0 -32 10.5 -69t45.5 -73l-34 -45q-43 14 -81.5 40t-67.5 61.5t-46 82t-17 107.5v342h-24q-28 0 -50 -11.5t-37 -32t-23 -47t-8 -55.5v-212q0 -64 -20.5 -117.5t-55.5 -90t-83 -56t-102 -19.5q-129 0 -195.5 86t-66.5 243v74h54v-71
q0 -135 54.5 -204.5t153.5 -69.5q42 0 79.5 15t66 44.5t43.5 72t15 94.5v211q0 42 12.5 79t35.5 65.5t55.5 44t71.5 15.5h80v-392q0 -44 9 -77t23 -58t32 -43t38 -33l5 4q-13 18 -20.5 48.5t-7.5 54.5q0 34 13 61.5t36 45t53.5 26.5t62.5 9v-58zM45 167v74q0 43 26.5 72
t68.5 29h36v-37h-36q-25 0 -42 -18.5t-17 -45.5v-36h95v-38h-131zM560 -202q0 39 39 39q19 0 28.5 -9.5t9.5 -29.5t-9.5 -29t-28.5 -9t-29 8.5t-10 29.5zM659 -202q0 20 9.5 29.5t28.5 9.5q39 0 39 -39q0 -21 -10 -29.5t-29 -8.5t-28.5 9t-9.5 29z" />
    <glyph glyph-name="uniFEEC_uniFE8C_uniFEF0.liga" unicode="&#xfeec;&#xfe8c;&#xfef0;" 
d="M1007 0q-50 0 -80 -26.5t-30 -65.5q0 -32 10.5 -69t45.5 -73l-34 -45q-43 14 -81.5 40t-67.5 61.5t-46 82t-17 107.5v342h-24q-28 0 -50 -11.5t-37 -32t-23 -47t-8 -55.5v-212q0 -64 -20.5 -117.5t-55.5 -90t-83 -56t-102 -19.5q-129 0 -195.5 86t-66.5 243v74h54v-71
q0 -135 54.5 -204.5t153.5 -69.5q42 0 79.5 15t66 44.5t43.5 72t15 94.5v211q0 42 12.5 79t35.5 65.5t55.5 44t71.5 15.5h80v-392q0 -44 9 -77t23 -58t32 -43t38 -33l5 4q-13 18 -20.5 48.5t-7.5 54.5q0 34 13 61.5t36 45t53.5 26.5t62.5 9v-58zM635 531v74q0 43 26.5 72
t68.5 29h36v-37h-36q-25 0 -42 -18.5t-17 -45.5v-36h95v-38h-131z" />
    <glyph glyph-name="uniFEEC_uniFE92_uniFEF0.liga" unicode="&#xfeec;&#xfe92;&#xfef0;" 
d="M1007 0q-50 0 -80 -26.5t-30 -65.5q0 -32 10.5 -69t45.5 -73l-34 -45q-43 14 -81.5 40t-67.5 61.5t-46 82t-17 107.5v342h-24q-28 0 -50 -11.5t-37 -32t-23 -47t-8 -55.5v-212q0 -64 -20.5 -117.5t-55.5 -90t-83 -56t-102 -19.5q-129 0 -195.5 86t-66.5 243v74h54v-71
q0 -135 54.5 -204.5t153.5 -69.5q42 0 79.5 15t66 44.5t43.5 72t15 94.5v211q0 42 12.5 79t35.5 65.5t55.5 44t71.5 15.5h80v-392q0 -44 9 -77t23 -58t32 -43t38 -33l5 4q-13 18 -20.5 48.5t-7.5 54.5q0 34 13 61.5t36 45t53.5 26.5t62.5 9v-58zM605 -169q0 42 42 42t42 -42
t-42 -42t-42 42z" />
    <glyph glyph-name="uniFEEC_uniFE98_uniFEF0.liga" unicode="&#xfeec;&#xfe98;&#xfef0;" 
d="M1007 0q-50 0 -80 -26.5t-30 -65.5q0 -32 10.5 -69t45.5 -73l-34 -45q-43 14 -81.5 40t-67.5 61.5t-46 82t-17 107.5v342h-24q-28 0 -50 -11.5t-37 -32t-23 -47t-8 -55.5v-212q0 -64 -20.5 -117.5t-55.5 -90t-83 -56t-102 -19.5q-129 0 -195.5 86t-66.5 243v74h54v-71
q0 -135 54.5 -204.5t153.5 -69.5q42 0 79.5 15t66 44.5t43.5 72t15 94.5v211q0 42 12.5 79t35.5 65.5t55.5 44t71.5 15.5h80v-392q0 -44 9 -77t23 -58t32 -43t38 -33l5 4q-13 18 -20.5 48.5t-7.5 54.5q0 34 13 61.5t36 45t53.5 26.5t62.5 9v-58zM586 615q0 41 41 41
q18 0 28.5 -10.5t10.5 -30.5t-10.5 -29.5t-28.5 -9.5q-20 0 -30.5 9t-10.5 30zM688 615q0 20 10.5 30.5t28.5 10.5q41 0 41 -41q0 -21 -10.5 -30t-30.5 -9q-18 0 -28.5 9.5t-10.5 29.5z" />
    <glyph glyph-name="uniFEEC_uniFE9C_uniFEF0.liga" unicode="&#xfeec;&#xfe9c;&#xfef0;" 
d="M1007 0q-50 0 -80 -26.5t-30 -65.5q0 -32 10.5 -69t45.5 -73l-34 -45q-43 14 -81.5 40t-67.5 61.5t-46 82t-17 107.5v342h-24q-28 0 -50 -11.5t-37 -32t-23 -47t-8 -55.5v-212q0 -64 -20.5 -117.5t-55.5 -90t-83 -56t-102 -19.5q-129 0 -195.5 86t-66.5 243v74h54v-71
q0 -135 54.5 -204.5t153.5 -69.5q42 0 79.5 15t66 44.5t43.5 72t15 94.5v211q0 42 12.5 79t35.5 65.5t55.5 44t71.5 15.5h80v-392q0 -44 9 -77t23 -58t32 -43t38 -33l5 4q-13 18 -20.5 48.5t-7.5 54.5q0 34 13 61.5t36 45t53.5 26.5t62.5 9v-58zM582 572q0 41 40 41
q20 0 30 -10.5t10 -30.5q0 -19 -10 -29t-30 -10t-30 8.5t-10 30.5zM690 572q0 20 10 30.5t30 10.5q40 0 40 -41q0 -22 -10 -30.5t-30 -8.5t-30 10t-10 29zM635 674q0 24 10.5 32.5t30.5 8.5t30.5 -8.5t10.5 -32.5q0 -20 -11.5 -30.5t-29.5 -10.5t-29.5 10.5t-11.5 30.5z" />
    <glyph glyph-name="uniFEEC_uniFEE8_uniFEF0.liga" unicode="&#xfeec;&#xfee8;&#xfef0;" 
d="M1007 0q-50 0 -80 -26.5t-30 -65.5q0 -32 10.5 -69t45.5 -73l-34 -45q-43 14 -81.5 40t-67.5 61.5t-46 82t-17 107.5v342h-24q-28 0 -50 -11.5t-37 -32t-23 -47t-8 -55.5v-212q0 -64 -20.5 -117.5t-55.5 -90t-83 -56t-102 -19.5q-129 0 -195.5 86t-66.5 243v74h54v-71
q0 -135 54.5 -204.5t153.5 -69.5q42 0 79.5 15t66 44.5t43.5 72t15 94.5v211q0 42 12.5 79t35.5 65.5t55.5 44t71.5 15.5h80v-392q0 -44 9 -77t23 -58t32 -43t38 -33l5 4q-13 18 -20.5 48.5t-7.5 54.5q0 34 13 61.5t36 45t53.5 26.5t62.5 9v-58zM675 615q0 44 43 44t43 -44
q0 -43 -43 -43t-43 43z" />
    <glyph glyph-name="uniFEEC_uniFBE9_uniFEF0.liga" unicode="&#xfeec;&#xfbe9;&#xfef0;" 
d="M1007 0q-50 0 -80 -26.5t-30 -65.5q0 -32 10.5 -69t45.5 -73l-34 -45q-43 14 -81.5 40t-67.5 61.5t-46 82t-17 107.5v342h-24q-28 0 -50 -11.5t-37 -32t-23 -47t-8 -55.5v-212q0 -64 -20.5 -117.5t-55.5 -90t-83 -56t-102 -19.5q-129 0 -195.5 86t-66.5 243v74h54v-71
q0 -135 54.5 -204.5t153.5 -69.5q42 0 79.5 15t66 44.5t43.5 72t15 94.5v211q0 42 12.5 79t35.5 65.5t55.5 44t71.5 15.5h80v-392q0 -44 9 -77t23 -58t32 -43t38 -33l5 4q-13 18 -20.5 48.5t-7.5 54.5q0 34 13 61.5t36 45t53.5 26.5t62.5 9v-58z" />
    <glyph glyph-name="uniFEEC_uniFEF4_uniFEF0.liga" unicode="&#xfeec;&#xfef4;&#xfef0;" 
d="M1007 0q-50 0 -80 -26.5t-30 -65.5q0 -32 10.5 -69t45.5 -73l-34 -45q-43 14 -81.5 40t-67.5 61.5t-46 82t-17 107.5v342h-24q-28 0 -50 -11.5t-37 -32t-23 -47t-8 -55.5v-212q0 -64 -20.5 -117.5t-55.5 -90t-83 -56t-102 -19.5q-129 0 -195.5 86t-66.5 243v74h54v-71
q0 -135 54.5 -204.5t153.5 -69.5q42 0 79.5 15t66 44.5t43.5 72t15 94.5v211q0 42 12.5 79t35.5 65.5t55.5 44t71.5 15.5h80v-392q0 -44 9 -77t23 -58t32 -43t38 -33l5 4q-13 18 -20.5 48.5t-7.5 54.5q0 34 13 61.5t36 45t53.5 26.5t62.5 9v-58zM560 -202q0 39 39 39
q19 0 28.5 -9.5t9.5 -29.5t-9.5 -29t-28.5 -9t-29 8.5t-10 29.5zM659 -202q0 20 9.5 29.5t28.5 9.5q39 0 39 -39q0 -21 -10 -29.5t-29 -8.5t-28.5 9t-9.5 29z" />
    <glyph glyph-name="uniFEEC_uniFB69_uniFEF0.liga" unicode="&#xfeec;&#xfb69;&#xfef0;" 
d="M1007 0q-50 0 -80 -26.5t-30 -65.5q0 -32 10.5 -69t45.5 -73l-34 -45q-43 14 -81.5 40t-67.5 61.5t-46 82t-17 107.5v342h-24q-28 0 -50 -11.5t-37 -32t-23 -47t-8 -55.5v-212q0 -64 -20.5 -117.5t-55.5 -90t-83 -56t-102 -19.5q-129 0 -195.5 86t-66.5 243v74h54v-71
q0 -135 54.5 -204.5t153.5 -69.5q42 0 79.5 15t66 44.5t43.5 72t15 94.5v211q0 42 12.5 79t35.5 65.5t55.5 44t71.5 15.5h80v-392q0 -44 9 -77t23 -58t32 -43t38 -33l5 4q-13 18 -20.5 48.5t-7.5 54.5q0 34 13 61.5t36 45t53.5 26.5t62.5 9v-58zM574 533v33h34v128h33v-57
q0 -4 -0.5 -12.5t-3.5 -15.5l3 -1l6 9q12 17 26.5 26.5t31.5 9.5q21 0 38.5 -14t17.5 -49v-57h-186zM728 586q0 14 -5.5 23.5t-18.5 9.5q-12 0 -19.5 -7t-17.5 -17l-22 -29h83v20z" />
    <glyph glyph-name="uniFEEC_uniFB59_uniFEF0.liga" unicode="&#xfeec;&#xfb59;&#xfef0;" 
d="M1007 0q-50 0 -80 -26.5t-30 -65.5q0 -32 10.5 -69t45.5 -73l-34 -45q-43 14 -81.5 40t-67.5 61.5t-46 82t-17 107.5v342h-24q-28 0 -50 -11.5t-37 -32t-23 -47t-8 -55.5v-212q0 -64 -20.5 -117.5t-55.5 -90t-83 -56t-102 -19.5q-129 0 -195.5 86t-66.5 243v74h54v-71
q0 -135 54.5 -204.5t153.5 -69.5q42 0 79.5 15t66 44.5t43.5 72t15 94.5v211q0 42 12.5 79t35.5 65.5t55.5 44t71.5 15.5h80v-392q0 -44 9 -77t23 -58t32 -43t38 -33l5 4q-13 18 -20.5 48.5t-7.5 54.5q0 34 13 61.5t36 45t53.5 26.5t62.5 9v-58zM739 -203q0 -41 -40 -41
q-18 0 -28 10.5t-10 30.5q0 18 10 28t28 10q20 0 30 -8.5t10 -29.5zM635 -203q0 -20 -10 -30.5t-28 -10.5q-40 0 -40 41q0 21 10 29.5t30 8.5q18 0 28 -10t10 -28zM688 -303q0 -22 -10 -31t-30 -9t-30 9t-10 31q0 20 11 30.5t29 10.5t29 -10.5t11 -30.5z" />
    <glyph glyph-name="uniFEEC_uniFBFF_uniFEF0.liga" unicode="&#xfeec;&#xfbff;&#xfef0;" 
d="M1007 0q-50 0 -80 -26.5t-30 -65.5q0 -32 10.5 -69t45.5 -73l-34 -45q-43 14 -81.5 40t-67.5 61.5t-46 82t-17 107.5v342h-24q-28 0 -50 -11.5t-37 -32t-23 -47t-8 -55.5v-212q0 -64 -20.5 -117.5t-55.5 -90t-83 -56t-102 -19.5q-129 0 -195.5 86t-66.5 243v74h54v-71
q0 -135 54.5 -204.5t153.5 -69.5q42 0 79.5 15t66 44.5t43.5 72t15 94.5v211q0 42 12.5 79t35.5 65.5t55.5 44t71.5 15.5h80v-392q0 -44 9 -77t23 -58t32 -43t38 -33l5 4q-13 18 -20.5 48.5t-7.5 54.5q0 34 13 61.5t36 45t53.5 26.5t62.5 9v-58zM560 -202q0 39 39 39
q19 0 28.5 -9.5t9.5 -29.5t-9.5 -29t-28.5 -9t-29 8.5t-10 29.5zM659 -202q0 20 9.5 29.5t28.5 9.5q39 0 39 -39q0 -21 -10 -29.5t-29 -8.5t-28.5 9t-9.5 29z" />
    <glyph glyph-name="uniFEEC_uniFE8C_uniFEF2.liga" unicode="&#xfeec;&#xfe8c;&#xfef2;" 
d="M1007 0q-50 0 -80 -26.5t-30 -65.5q0 -32 10.5 -69t45.5 -73l-34 -45q-43 14 -81.5 40t-67.5 61.5t-46 82t-17 107.5v342h-24q-28 0 -50 -11.5t-37 -32t-23 -47t-8 -55.5v-212q0 -64 -20.5 -117.5t-55.5 -90t-83 -56t-102 -19.5q-129 0 -195.5 86t-66.5 243v74h54v-71
q0 -135 54.5 -204.5t153.5 -69.5q42 0 79.5 15t66 44.5t43.5 72t15 94.5v211q0 42 12.5 79t35.5 65.5t55.5 44t71.5 15.5h80v-392q0 -44 9 -77t23 -58t32 -43t38 -33l5 4q-13 18 -20.5 48.5t-7.5 54.5q0 34 13 61.5t36 45t53.5 26.5t62.5 9v-58zM635 531v74q0 43 26.5 72
t68.5 29h36v-37h-36q-25 0 -42 -18.5t-17 -45.5v-36h95v-38h-131zM228 -381q0 41 41 41q18 0 28.5 -10.5t10.5 -30.5t-10.5 -29.5t-28.5 -9.5q-20 0 -30.5 9t-10.5 30zM330 -381q0 20 10.5 30.5t28.5 10.5q41 0 41 -41q0 -21 -10.5 -30t-30.5 -9q-18 0 -28.5 9.5t-10.5 29.5
z" />
    <glyph glyph-name="uniFEEC_uniFE92_uniFEF2.liga" unicode="&#xfeec;&#xfe92;&#xfef2;" 
d="M1007 0q-50 0 -80 -26.5t-30 -65.5q0 -32 10.5 -69t45.5 -73l-34 -45q-43 14 -81.5 40t-67.5 61.5t-46 82t-17 107.5v342h-24q-28 0 -50 -11.5t-37 -32t-23 -47t-8 -55.5v-212q0 -64 -20.5 -117.5t-55.5 -90t-83 -56t-102 -19.5q-129 0 -195.5 86t-66.5 243v74h54v-71
q0 -135 54.5 -204.5t153.5 -69.5q42 0 79.5 15t66 44.5t43.5 72t15 94.5v211q0 42 12.5 79t35.5 65.5t55.5 44t71.5 15.5h80v-392q0 -44 9 -77t23 -58t32 -43t38 -33l5 4q-13 18 -20.5 48.5t-7.5 54.5q0 34 13 61.5t36 45t53.5 26.5t62.5 9v-58zM605 -169q0 42 42 42t42 -42
t-42 -42t-42 42zM228 -381q0 41 41 41q18 0 28.5 -10.5t10.5 -30.5t-10.5 -29.5t-28.5 -9.5q-20 0 -30.5 9t-10.5 30zM330 -381q0 20 10.5 30.5t28.5 10.5q41 0 41 -41q0 -21 -10.5 -30t-30.5 -9q-18 0 -28.5 9.5t-10.5 29.5z" />
    <glyph glyph-name="uniFEEC_uniFE98_uniFEF2.liga" unicode="&#xfeec;&#xfe98;&#xfef2;" 
d="M1007 0q-50 0 -80 -26.5t-30 -65.5q0 -32 10.5 -69t45.5 -73l-34 -45q-43 14 -81.5 40t-67.5 61.5t-46 82t-17 107.5v342h-24q-28 0 -50 -11.5t-37 -32t-23 -47t-8 -55.5v-212q0 -64 -20.5 -117.5t-55.5 -90t-83 -56t-102 -19.5q-129 0 -195.5 86t-66.5 243v74h54v-71
q0 -135 54.5 -204.5t153.5 -69.5q42 0 79.5 15t66 44.5t43.5 72t15 94.5v211q0 42 12.5 79t35.5 65.5t55.5 44t71.5 15.5h80v-392q0 -44 9 -77t23 -58t32 -43t38 -33l5 4q-13 18 -20.5 48.5t-7.5 54.5q0 34 13 61.5t36 45t53.5 26.5t62.5 9v-58zM586 615q0 41 41 41
q18 0 28.5 -10.5t10.5 -30.5t-10.5 -29.5t-28.5 -9.5q-20 0 -30.5 9t-10.5 30zM688 615q0 20 10.5 30.5t28.5 10.5q41 0 41 -41q0 -21 -10.5 -30t-30.5 -9q-18 0 -28.5 9.5t-10.5 29.5zM228 -381q0 41 41 41q18 0 28.5 -10.5t10.5 -30.5t-10.5 -29.5t-28.5 -9.5
q-20 0 -30.5 9t-10.5 30zM330 -381q0 20 10.5 30.5t28.5 10.5q41 0 41 -41q0 -21 -10.5 -30t-30.5 -9q-18 0 -28.5 9.5t-10.5 29.5z" />
    <glyph glyph-name="uniFEEC_uniFE9C_uniFEF2.liga" unicode="&#xfeec;&#xfe9c;&#xfef2;" 
d="M1007 0q-50 0 -80 -26.5t-30 -65.5q0 -32 10.5 -69t45.5 -73l-34 -45q-43 14 -81.5 40t-67.5 61.5t-46 82t-17 107.5v342h-24q-28 0 -50 -11.5t-37 -32t-23 -47t-8 -55.5v-212q0 -64 -20.5 -117.5t-55.5 -90t-83 -56t-102 -19.5q-129 0 -195.5 86t-66.5 243v74h54v-71
q0 -135 54.5 -204.5t153.5 -69.5q42 0 79.5 15t66 44.5t43.5 72t15 94.5v211q0 42 12.5 79t35.5 65.5t55.5 44t71.5 15.5h80v-392q0 -44 9 -77t23 -58t32 -43t38 -33l5 4q-13 18 -20.5 48.5t-7.5 54.5q0 34 13 61.5t36 45t53.5 26.5t62.5 9v-58zM582 572q0 41 40 41
q20 0 30 -10.5t10 -30.5q0 -19 -10 -29t-30 -10t-30 8.5t-10 30.5zM690 572q0 20 10 30.5t30 10.5q40 0 40 -41q0 -22 -10 -30.5t-30 -8.5t-30 10t-10 29zM635 674q0 24 10.5 32.5t30.5 8.5t30.5 -8.5t10.5 -32.5q0 -20 -11.5 -30.5t-29.5 -10.5t-29.5 10.5t-11.5 30.5z
M228 -381q0 41 41 41q18 0 28.5 -10.5t10.5 -30.5t-10.5 -29.5t-28.5 -9.5q-20 0 -30.5 9t-10.5 30zM330 -381q0 20 10.5 30.5t28.5 10.5q41 0 41 -41q0 -21 -10.5 -30t-30.5 -9q-18 0 -28.5 9.5t-10.5 29.5z" />
    <glyph glyph-name="uniFEEC_uniFEE8_uniFEF2.liga" unicode="&#xfeec;&#xfee8;&#xfef2;" 
d="M1007 0q-50 0 -80 -26.5t-30 -65.5q0 -32 10.5 -69t45.5 -73l-34 -45q-43 14 -81.5 40t-67.5 61.5t-46 82t-17 107.5v342h-24q-28 0 -50 -11.5t-37 -32t-23 -47t-8 -55.5v-212q0 -64 -20.5 -117.5t-55.5 -90t-83 -56t-102 -19.5q-129 0 -195.5 86t-66.5 243v74h54v-71
q0 -135 54.5 -204.5t153.5 -69.5q42 0 79.5 15t66 44.5t43.5 72t15 94.5v211q0 42 12.5 79t35.5 65.5t55.5 44t71.5 15.5h80v-392q0 -44 9 -77t23 -58t32 -43t38 -33l5 4q-13 18 -20.5 48.5t-7.5 54.5q0 34 13 61.5t36 45t53.5 26.5t62.5 9v-58zM675 615q0 44 43 44t43 -44
q0 -43 -43 -43t-43 43zM228 -381q0 41 41 41q18 0 28.5 -10.5t10.5 -30.5t-10.5 -29.5t-28.5 -9.5q-20 0 -30.5 9t-10.5 30zM330 -381q0 20 10.5 30.5t28.5 10.5q41 0 41 -41q0 -21 -10.5 -30t-30.5 -9q-18 0 -28.5 9.5t-10.5 29.5z" />
    <glyph glyph-name="uniFEEC_uniFBE9_uniFEF2.liga" unicode="&#xfeec;&#xfbe9;&#xfef2;" 
d="M1007 0q-50 0 -80 -26.5t-30 -65.5q0 -32 10.5 -69t45.5 -73l-34 -45q-43 14 -81.5 40t-67.5 61.5t-46 82t-17 107.5v342h-24q-28 0 -50 -11.5t-37 -32t-23 -47t-8 -55.5v-212q0 -64 -20.5 -117.5t-55.5 -90t-83 -56t-102 -19.5q-129 0 -195.5 86t-66.5 243v74h54v-71
q0 -135 54.5 -204.5t153.5 -69.5q42 0 79.5 15t66 44.5t43.5 72t15 94.5v211q0 42 12.5 79t35.5 65.5t55.5 44t71.5 15.5h80v-392q0 -44 9 -77t23 -58t32 -43t38 -33l5 4q-13 18 -20.5 48.5t-7.5 54.5q0 34 13 61.5t36 45t53.5 26.5t62.5 9v-58zM228 -381q0 41 41 41
q18 0 28.5 -10.5t10.5 -30.5t-10.5 -29.5t-28.5 -9.5q-20 0 -30.5 9t-10.5 30zM330 -381q0 20 10.5 30.5t28.5 10.5q41 0 41 -41q0 -21 -10.5 -30t-30.5 -9q-18 0 -28.5 9.5t-10.5 29.5z" />
    <glyph glyph-name="uniFEEC_uniFEF4_uniFEF2.liga" unicode="&#xfeec;&#xfef4;&#xfef2;" 
d="M1007 0q-50 0 -80 -26.5t-30 -65.5q0 -32 10.5 -69t45.5 -73l-34 -45q-43 14 -81.5 40t-67.5 61.5t-46 82t-17 107.5v342h-24q-28 0 -50 -11.5t-37 -32t-23 -47t-8 -55.5v-212q0 -64 -20.5 -117.5t-55.5 -90t-83 -56t-102 -19.5q-129 0 -195.5 86t-66.5 243v74h54v-71
q0 -135 54.5 -204.5t153.5 -69.5q42 0 79.5 15t66 44.5t43.5 72t15 94.5v211q0 42 12.5 79t35.5 65.5t55.5 44t71.5 15.5h80v-392q0 -44 9 -77t23 -58t32 -43t38 -33l5 4q-13 18 -20.5 48.5t-7.5 54.5q0 34 13 61.5t36 45t53.5 26.5t62.5 9v-58zM560 -202q0 39 39 39
q19 0 28.5 -9.5t9.5 -29.5t-9.5 -29t-28.5 -9t-29 8.5t-10 29.5zM659 -202q0 20 9.5 29.5t28.5 9.5q39 0 39 -39q0 -21 -10 -29.5t-29 -8.5t-28.5 9t-9.5 29zM228 -381q0 41 41 41q18 0 28.5 -10.5t10.5 -30.5t-10.5 -29.5t-28.5 -9.5q-20 0 -30.5 9t-10.5 30zM330 -381
q0 20 10.5 30.5t28.5 10.5q41 0 41 -41q0 -21 -10.5 -30t-30.5 -9q-18 0 -28.5 9.5t-10.5 29.5z" />
    <glyph glyph-name="uniFEEC_uniFB69_uniFEF2.liga" unicode="&#xfeec;&#xfb69;&#xfef2;" 
d="M1007 0q-50 0 -80 -26.5t-30 -65.5q0 -32 10.5 -69t45.5 -73l-34 -45q-43 14 -81.5 40t-67.5 61.5t-46 82t-17 107.5v342h-24q-28 0 -50 -11.5t-37 -32t-23 -47t-8 -55.5v-212q0 -64 -20.5 -117.5t-55.5 -90t-83 -56t-102 -19.5q-129 0 -195.5 86t-66.5 243v74h54v-71
q0 -135 54.5 -204.5t153.5 -69.5q42 0 79.5 15t66 44.5t43.5 72t15 94.5v211q0 42 12.5 79t35.5 65.5t55.5 44t71.5 15.5h80v-392q0 -44 9 -77t23 -58t32 -43t38 -33l5 4q-13 18 -20.5 48.5t-7.5 54.5q0 34 13 61.5t36 45t53.5 26.5t62.5 9v-58zM574 533v33h34v128h33v-57
q0 -4 -0.5 -12.5t-3.5 -15.5l3 -1l6 9q12 17 26.5 26.5t31.5 9.5q21 0 38.5 -14t17.5 -49v-57h-186zM728 586q0 14 -5.5 23.5t-18.5 9.5q-12 0 -19.5 -7t-17.5 -17l-22 -29h83v20zM228 -381q0 41 41 41q18 0 28.5 -10.5t10.5 -30.5t-10.5 -29.5t-28.5 -9.5q-20 0 -30.5 9
t-10.5 30zM330 -381q0 20 10.5 30.5t28.5 10.5q41 0 41 -41q0 -21 -10.5 -30t-30.5 -9q-18 0 -28.5 9.5t-10.5 29.5z" />
    <glyph glyph-name="uniFEEC_uniFB59_uniFEF2.liga" unicode="&#xfeec;&#xfb59;&#xfef2;" 
d="M1007 0q-50 0 -80 -26.5t-30 -65.5q0 -32 10.5 -69t45.5 -73l-34 -45q-43 14 -81.5 40t-67.5 61.5t-46 82t-17 107.5v342h-24q-28 0 -50 -11.5t-37 -32t-23 -47t-8 -55.5v-212q0 -64 -20.5 -117.5t-55.5 -90t-83 -56t-102 -19.5q-129 0 -195.5 86t-66.5 243v74h54v-71
q0 -135 54.5 -204.5t153.5 -69.5q42 0 79.5 15t66 44.5t43.5 72t15 94.5v211q0 42 12.5 79t35.5 65.5t55.5 44t71.5 15.5h80v-392q0 -44 9 -77t23 -58t32 -43t38 -33l5 4q-13 18 -20.5 48.5t-7.5 54.5q0 34 13 61.5t36 45t53.5 26.5t62.5 9v-58zM739 -203q0 -41 -40 -41
q-18 0 -28 10.5t-10 30.5q0 18 10 28t28 10q20 0 30 -8.5t10 -29.5zM635 -203q0 -20 -10 -30.5t-28 -10.5q-40 0 -40 41q0 21 10 29.5t30 8.5q18 0 28 -10t10 -28zM688 -303q0 -22 -10 -31t-30 -9t-30 9t-10 31q0 20 11 30.5t29 10.5t29 -10.5t11 -30.5zM228 -381
q0 41 41 41q18 0 28.5 -10.5t10.5 -30.5t-10.5 -29.5t-28.5 -9.5q-20 0 -30.5 9t-10.5 30zM330 -381q0 20 10.5 30.5t28.5 10.5q41 0 41 -41q0 -21 -10.5 -30t-30.5 -9q-18 0 -28.5 9.5t-10.5 29.5z" />
    <glyph glyph-name="uniFEEC_uniFBFF_uniFEF2.liga" unicode="&#xfeec;&#xfbff;&#xfef2;" 
d="M1007 0q-50 0 -80 -26.5t-30 -65.5q0 -32 10.5 -69t45.5 -73l-34 -45q-43 14 -81.5 40t-67.5 61.5t-46 82t-17 107.5v342h-24q-28 0 -50 -11.5t-37 -32t-23 -47t-8 -55.5v-212q0 -64 -20.5 -117.5t-55.5 -90t-83 -56t-102 -19.5q-129 0 -195.5 86t-66.5 243v74h54v-71
q0 -135 54.5 -204.5t153.5 -69.5q42 0 79.5 15t66 44.5t43.5 72t15 94.5v211q0 42 12.5 79t35.5 65.5t55.5 44t71.5 15.5h80v-392q0 -44 9 -77t23 -58t32 -43t38 -33l5 4q-13 18 -20.5 48.5t-7.5 54.5q0 34 13 61.5t36 45t53.5 26.5t62.5 9v-58zM560 -202q0 39 39 39
q19 0 28.5 -9.5t9.5 -29.5t-9.5 -29t-28.5 -9t-29 8.5t-10 29.5zM659 -202q0 20 9.5 29.5t28.5 9.5q39 0 39 -39q0 -21 -10 -29.5t-29 -8.5t-28.5 9t-9.5 29zM228 -381q0 41 41 41q18 0 28.5 -10.5t10.5 -30.5t-10.5 -29.5t-28.5 -9.5q-20 0 -30.5 9t-10.5 30zM330 -381
q0 20 10.5 30.5t28.5 10.5q41 0 41 -41q0 -21 -10.5 -30t-30.5 -9q-18 0 -28.5 9.5t-10.5 29.5z" />
    <glyph glyph-name="uniFEEC_uniFE8C_uniFBFD.liga" unicode="&#xfeec;&#xfe8c;&#xfbfd;" 
d="M1007 0q-50 0 -80 -26.5t-30 -65.5q0 -32 10.5 -69t45.5 -73l-34 -45q-43 14 -81.5 40t-67.5 61.5t-46 82t-17 107.5v342h-24q-28 0 -50 -11.5t-37 -32t-23 -47t-8 -55.5v-212q0 -64 -20.5 -117.5t-55.5 -90t-83 -56t-102 -19.5q-129 0 -195.5 86t-66.5 243v74h54v-71
q0 -135 54.5 -204.5t153.5 -69.5q42 0 79.5 15t66 44.5t43.5 72t15 94.5v211q0 42 12.5 79t35.5 65.5t55.5 44t71.5 15.5h80v-392q0 -44 9 -77t23 -58t32 -43t38 -33l5 4q-13 18 -20.5 48.5t-7.5 54.5q0 34 13 61.5t36 45t53.5 26.5t62.5 9v-58zM635 531v74q0 43 26.5 72
t68.5 29h36v-37h-36q-25 0 -42 -18.5t-17 -45.5v-36h95v-38h-131z" />
    <glyph glyph-name="uniFEEC_uniFE92_uniFBFD.liga" unicode="&#xfeec;&#xfe92;&#xfbfd;" 
d="M1007 0q-50 0 -80 -26.5t-30 -65.5q0 -32 10.5 -69t45.5 -73l-34 -45q-43 14 -81.5 40t-67.5 61.5t-46 82t-17 107.5v342h-24q-28 0 -50 -11.5t-37 -32t-23 -47t-8 -55.5v-212q0 -64 -20.5 -117.5t-55.5 -90t-83 -56t-102 -19.5q-129 0 -195.5 86t-66.5 243v74h54v-71
q0 -135 54.5 -204.5t153.5 -69.5q42 0 79.5 15t66 44.5t43.5 72t15 94.5v211q0 42 12.5 79t35.5 65.5t55.5 44t71.5 15.5h80v-392q0 -44 9 -77t23 -58t32 -43t38 -33l5 4q-13 18 -20.5 48.5t-7.5 54.5q0 34 13 61.5t36 45t53.5 26.5t62.5 9v-58zM605 -169q0 42 42 42t42 -42
t-42 -42t-42 42z" />
    <glyph glyph-name="uniFEEC_uniFE98_uniFBFD.liga" unicode="&#xfeec;&#xfe98;&#xfbfd;" 
d="M1007 0q-50 0 -80 -26.5t-30 -65.5q0 -32 10.5 -69t45.5 -73l-34 -45q-43 14 -81.5 40t-67.5 61.5t-46 82t-17 107.5v342h-24q-28 0 -50 -11.5t-37 -32t-23 -47t-8 -55.5v-212q0 -64 -20.5 -117.5t-55.5 -90t-83 -56t-102 -19.5q-129 0 -195.5 86t-66.5 243v74h54v-71
q0 -135 54.5 -204.5t153.5 -69.5q42 0 79.5 15t66 44.5t43.5 72t15 94.5v211q0 42 12.5 79t35.5 65.5t55.5 44t71.5 15.5h80v-392q0 -44 9 -77t23 -58t32 -43t38 -33l5 4q-13 18 -20.5 48.5t-7.5 54.5q0 34 13 61.5t36 45t53.5 26.5t62.5 9v-58zM586 615q0 41 41 41
q18 0 28.5 -10.5t10.5 -30.5t-10.5 -29.5t-28.5 -9.5q-20 0 -30.5 9t-10.5 30zM688 615q0 20 10.5 30.5t28.5 10.5q41 0 41 -41q0 -21 -10.5 -30t-30.5 -9q-18 0 -28.5 9.5t-10.5 29.5z" />
    <glyph glyph-name="uniFEEC_uniFE9C_uniFBFD.liga" unicode="&#xfeec;&#xfe9c;&#xfbfd;" 
d="M1007 0q-50 0 -80 -26.5t-30 -65.5q0 -32 10.5 -69t45.5 -73l-34 -45q-43 14 -81.5 40t-67.5 61.5t-46 82t-17 107.5v342h-24q-28 0 -50 -11.5t-37 -32t-23 -47t-8 -55.5v-212q0 -64 -20.5 -117.5t-55.5 -90t-83 -56t-102 -19.5q-129 0 -195.5 86t-66.5 243v74h54v-71
q0 -135 54.5 -204.5t153.5 -69.5q42 0 79.5 15t66 44.5t43.5 72t15 94.5v211q0 42 12.5 79t35.5 65.5t55.5 44t71.5 15.5h80v-392q0 -44 9 -77t23 -58t32 -43t38 -33l5 4q-13 18 -20.5 48.5t-7.5 54.5q0 34 13 61.5t36 45t53.5 26.5t62.5 9v-58zM582 572q0 41 40 41
q20 0 30 -10.5t10 -30.5q0 -19 -10 -29t-30 -10t-30 8.5t-10 30.5zM690 572q0 20 10 30.5t30 10.5q40 0 40 -41q0 -22 -10 -30.5t-30 -8.5t-30 10t-10 29zM635 674q0 24 10.5 32.5t30.5 8.5t30.5 -8.5t10.5 -32.5q0 -20 -11.5 -30.5t-29.5 -10.5t-29.5 10.5t-11.5 30.5z" />
    <glyph glyph-name="uniFEEC_uniFEE8_uniFBFD.liga" unicode="&#xfeec;&#xfee8;&#xfbfd;" 
d="M1007 0q-50 0 -80 -26.5t-30 -65.5q0 -32 10.5 -69t45.5 -73l-34 -45q-43 14 -81.5 40t-67.5 61.5t-46 82t-17 107.5v342h-24q-28 0 -50 -11.5t-37 -32t-23 -47t-8 -55.5v-212q0 -64 -20.5 -117.5t-55.5 -90t-83 -56t-102 -19.5q-129 0 -195.5 86t-66.5 243v74h54v-71
q0 -135 54.5 -204.5t153.5 -69.5q42 0 79.5 15t66 44.5t43.5 72t15 94.5v211q0 42 12.5 79t35.5 65.5t55.5 44t71.5 15.5h80v-392q0 -44 9 -77t23 -58t32 -43t38 -33l5 4q-13 18 -20.5 48.5t-7.5 54.5q0 34 13 61.5t36 45t53.5 26.5t62.5 9v-58zM675 615q0 44 43 44t43 -44
q0 -43 -43 -43t-43 43z" />
    <glyph glyph-name="uniFEEC_uniFBE9_uniFBFD.liga" unicode="&#xfeec;&#xfbe9;&#xfbfd;" 
d="M1007 0q-50 0 -80 -26.5t-30 -65.5q0 -32 10.5 -69t45.5 -73l-34 -45q-43 14 -81.5 40t-67.5 61.5t-46 82t-17 107.5v342h-24q-28 0 -50 -11.5t-37 -32t-23 -47t-8 -55.5v-212q0 -64 -20.5 -117.5t-55.5 -90t-83 -56t-102 -19.5q-129 0 -195.5 86t-66.5 243v74h54v-71
q0 -135 54.5 -204.5t153.5 -69.5q42 0 79.5 15t66 44.5t43.5 72t15 94.5v211q0 42 12.5 79t35.5 65.5t55.5 44t71.5 15.5h80v-392q0 -44 9 -77t23 -58t32 -43t38 -33l5 4q-13 18 -20.5 48.5t-7.5 54.5q0 34 13 61.5t36 45t53.5 26.5t62.5 9v-58z" />
    <glyph glyph-name="uniFEEC_uniFEF4_uniFBFD.liga" unicode="&#xfeec;&#xfef4;&#xfbfd;" 
d="M1007 0q-50 0 -80 -26.5t-30 -65.5q0 -32 10.5 -69t45.5 -73l-34 -45q-43 14 -81.5 40t-67.5 61.5t-46 82t-17 107.5v342h-24q-28 0 -50 -11.5t-37 -32t-23 -47t-8 -55.5v-212q0 -64 -20.5 -117.5t-55.5 -90t-83 -56t-102 -19.5q-129 0 -195.5 86t-66.5 243v74h54v-71
q0 -135 54.5 -204.5t153.5 -69.5q42 0 79.5 15t66 44.5t43.5 72t15 94.5v211q0 42 12.5 79t35.5 65.5t55.5 44t71.5 15.5h80v-392q0 -44 9 -77t23 -58t32 -43t38 -33l5 4q-13 18 -20.5 48.5t-7.5 54.5q0 34 13 61.5t36 45t53.5 26.5t62.5 9v-58zM560 -202q0 39 39 39
q19 0 28.5 -9.5t9.5 -29.5t-9.5 -29t-28.5 -9t-29 8.5t-10 29.5zM659 -202q0 20 9.5 29.5t28.5 9.5q39 0 39 -39q0 -21 -10 -29.5t-29 -8.5t-28.5 9t-9.5 29z" />
    <glyph glyph-name="uniFEEC_uniFB69_uniFBFD.liga" unicode="&#xfeec;&#xfb69;&#xfbfd;" 
d="M1007 0q-50 0 -80 -26.5t-30 -65.5q0 -32 10.5 -69t45.5 -73l-34 -45q-43 14 -81.5 40t-67.5 61.5t-46 82t-17 107.5v342h-24q-28 0 -50 -11.5t-37 -32t-23 -47t-8 -55.5v-212q0 -64 -20.5 -117.5t-55.5 -90t-83 -56t-102 -19.5q-129 0 -195.5 86t-66.5 243v74h54v-71
q0 -135 54.5 -204.5t153.5 -69.5q42 0 79.5 15t66 44.5t43.5 72t15 94.5v211q0 42 12.5 79t35.5 65.5t55.5 44t71.5 15.5h80v-392q0 -44 9 -77t23 -58t32 -43t38 -33l5 4q-13 18 -20.5 48.5t-7.5 54.5q0 34 13 61.5t36 45t53.5 26.5t62.5 9v-58zM574 533v33h34v128h33v-57
q0 -4 -0.5 -12.5t-3.5 -15.5l3 -1l6 9q12 17 26.5 26.5t31.5 9.5q21 0 38.5 -14t17.5 -49v-57h-186zM728 586q0 14 -5.5 23.5t-18.5 9.5q-12 0 -19.5 -7t-17.5 -17l-22 -29h83v20z" />
    <glyph glyph-name="uniFEEC_uniFB59_uniFBFD.liga" unicode="&#xfeec;&#xfb59;&#xfbfd;" 
d="M1007 0q-50 0 -80 -26.5t-30 -65.5q0 -32 10.5 -69t45.5 -73l-34 -45q-43 14 -81.5 40t-67.5 61.5t-46 82t-17 107.5v342h-24q-28 0 -50 -11.5t-37 -32t-23 -47t-8 -55.5v-212q0 -64 -20.5 -117.5t-55.5 -90t-83 -56t-102 -19.5q-129 0 -195.5 86t-66.5 243v74h54v-71
q0 -135 54.5 -204.5t153.5 -69.5q42 0 79.5 15t66 44.5t43.5 72t15 94.5v211q0 42 12.5 79t35.5 65.5t55.5 44t71.5 15.5h80v-392q0 -44 9 -77t23 -58t32 -43t38 -33l5 4q-13 18 -20.5 48.5t-7.5 54.5q0 34 13 61.5t36 45t53.5 26.5t62.5 9v-58zM739 -203q0 -41 -40 -41
q-18 0 -28 10.5t-10 30.5q0 18 10 28t28 10q20 0 30 -8.5t10 -29.5zM635 -203q0 -20 -10 -30.5t-28 -10.5q-40 0 -40 41q0 21 10 29.5t30 8.5q18 0 28 -10t10 -28zM688 -303q0 -22 -10 -31t-30 -9t-30 9t-10 31q0 20 11 30.5t29 10.5t29 -10.5t11 -30.5z" />
    <glyph glyph-name="uniFEEC_uniFBFF_uniFBFD.liga" unicode="&#xfeec;&#xfbff;&#xfbfd;" 
d="M1007 0q-50 0 -80 -26.5t-30 -65.5q0 -32 10.5 -69t45.5 -73l-34 -45q-43 14 -81.5 40t-67.5 61.5t-46 82t-17 107.5v342h-24q-28 0 -50 -11.5t-37 -32t-23 -47t-8 -55.5v-212q0 -64 -20.5 -117.5t-55.5 -90t-83 -56t-102 -19.5q-129 0 -195.5 86t-66.5 243v74h54v-71
q0 -135 54.5 -204.5t153.5 -69.5q42 0 79.5 15t66 44.5t43.5 72t15 94.5v211q0 42 12.5 79t35.5 65.5t55.5 44t71.5 15.5h80v-392q0 -44 9 -77t23 -58t32 -43t38 -33l5 4q-13 18 -20.5 48.5t-7.5 54.5q0 34 13 61.5t36 45t53.5 26.5t62.5 9v-58zM560 -202q0 39 39 39
q19 0 28.5 -9.5t9.5 -29.5t-9.5 -29t-28.5 -9t-29 8.5t-10 29.5zM659 -202q0 20 9.5 29.5t28.5 9.5q39 0 39 -39q0 -21 -10 -29.5t-29 -8.5t-28.5 9t-9.5 29z" />
    <glyph glyph-name="uniFBA9_uniFE8A.liga" unicode="&#xfba9;&#xfe8a;" 
d="M1007 0q-50 0 -80 -26.5t-30 -65.5q0 -32 10.5 -69t45.5 -73l-34 -45q-43 14 -81.5 40t-67.5 61.5t-46 82t-17 107.5v342h-24q-28 0 -50 -11.5t-37 -32t-23 -47t-8 -55.5v-212q0 -64 -20.5 -117.5t-55.5 -90t-83 -56t-102 -19.5q-129 0 -195.5 86t-66.5 243v74h54v-71
q0 -135 54.5 -204.5t153.5 -69.5q42 0 79.5 15t66 44.5t43.5 72t15 94.5v211q0 42 12.5 79t35.5 65.5t55.5 44t71.5 15.5h80v-392q0 -44 9 -77t23 -58t32 -43t38 -33l5 4q-13 18 -20.5 48.5t-7.5 54.5q0 34 13 61.5t36 45t53.5 26.5t62.5 9v-58zM45 167v74q0 43 26.5 72
t68.5 29h36v-37h-36q-25 0 -42 -18.5t-17 -45.5v-36h95v-38h-131z" />
    <glyph glyph-name="uniFBA9_uniFEF0.liga" unicode="&#xfba9;&#xfef0;" 
d="M1007 0q-50 0 -80 -26.5t-30 -65.5q0 -32 10.5 -69t45.5 -73l-34 -45q-43 14 -81.5 40t-67.5 61.5t-46 82t-17 107.5v342h-24q-28 0 -50 -11.5t-37 -32t-23 -47t-8 -55.5v-212q0 -64 -20.5 -117.5t-55.5 -90t-83 -56t-102 -19.5q-129 0 -195.5 86t-66.5 243v74h54v-71
q0 -135 54.5 -204.5t153.5 -69.5q42 0 79.5 15t66 44.5t43.5 72t15 94.5v211q0 42 12.5 79t35.5 65.5t55.5 44t71.5 15.5h80v-392q0 -44 9 -77t23 -58t32 -43t38 -33l5 4q-13 18 -20.5 48.5t-7.5 54.5q0 34 13 61.5t36 45t53.5 26.5t62.5 9v-58z" />
    <glyph glyph-name="uniFBA9_uniFEF2.liga" unicode="&#xfba9;&#xfef2;" 
d="M1007 0q-50 0 -80 -26.5t-30 -65.5q0 -32 10.5 -69t45.5 -73l-34 -45q-43 14 -81.5 40t-67.5 61.5t-46 82t-17 107.5v342h-24q-28 0 -50 -11.5t-37 -32t-23 -47t-8 -55.5v-212q0 -64 -20.5 -117.5t-55.5 -90t-83 -56t-102 -19.5q-129 0 -195.5 86t-66.5 243v74h54v-71
q0 -135 54.5 -204.5t153.5 -69.5q42 0 79.5 15t66 44.5t43.5 72t15 94.5v211q0 42 12.5 79t35.5 65.5t55.5 44t71.5 15.5h80v-392q0 -44 9 -77t23 -58t32 -43t38 -33l5 4q-13 18 -20.5 48.5t-7.5 54.5q0 34 13 61.5t36 45t53.5 26.5t62.5 9v-58zM228 -381q0 41 41 41
q18 0 28.5 -10.5t10.5 -30.5t-10.5 -29.5t-28.5 -9.5q-20 0 -30.5 9t-10.5 30zM330 -381q0 20 10.5 30.5t28.5 10.5q41 0 41 -41q0 -21 -10.5 -30t-30.5 -9q-18 0 -28.5 9.5t-10.5 29.5z" />
    <glyph glyph-name="uniFBA9_uniFBFD.liga" unicode="&#xfba9;&#xfbfd;" 
d="M1007 0q-50 0 -80 -26.5t-30 -65.5q0 -32 10.5 -69t45.5 -73l-34 -45q-43 14 -81.5 40t-67.5 61.5t-46 82t-17 107.5v342h-24q-28 0 -50 -11.5t-37 -32t-23 -47t-8 -55.5v-212q0 -64 -20.5 -117.5t-55.5 -90t-83 -56t-102 -19.5q-129 0 -195.5 86t-66.5 243v74h54v-71
q0 -135 54.5 -204.5t153.5 -69.5q42 0 79.5 15t66 44.5t43.5 72t15 94.5v211q0 42 12.5 79t35.5 65.5t55.5 44t71.5 15.5h80v-392q0 -44 9 -77t23 -58t32 -43t38 -33l5 4q-13 18 -20.5 48.5t-7.5 54.5q0 34 13 61.5t36 45t53.5 26.5t62.5 9v-58z" />
    <glyph glyph-name="uniFBA9_uniFE8C_uniFE8A.liga" unicode="&#xfba9;&#xfe8c;&#xfe8a;" 
d="M1007 0q-50 0 -80 -26.5t-30 -65.5q0 -32 10.5 -69t45.5 -73l-34 -45q-43 14 -81.5 40t-67.5 61.5t-46 82t-17 107.5v342h-24q-28 0 -50 -11.5t-37 -32t-23 -47t-8 -55.5v-212q0 -64 -20.5 -117.5t-55.5 -90t-83 -56t-102 -19.5q-129 0 -195.5 86t-66.5 243v74h54v-71
q0 -135 54.5 -204.5t153.5 -69.5q42 0 79.5 15t66 44.5t43.5 72t15 94.5v211q0 42 12.5 79t35.5 65.5t55.5 44t71.5 15.5h80v-392q0 -44 9 -77t23 -58t32 -43t38 -33l5 4q-13 18 -20.5 48.5t-7.5 54.5q0 34 13 61.5t36 45t53.5 26.5t62.5 9v-58zM45 167v74q0 43 26.5 72
t68.5 29h36v-37h-36q-25 0 -42 -18.5t-17 -45.5v-36h95v-38h-131zM635 531v74q0 43 26.5 72t68.5 29h36v-37h-36q-25 0 -42 -18.5t-17 -45.5v-36h95v-38h-131z" />
    <glyph glyph-name="uniFBA9_uniFE92_uniFE8A.liga" unicode="&#xfba9;&#xfe92;&#xfe8a;" 
d="M1007 0q-50 0 -80 -26.5t-30 -65.5q0 -32 10.5 -69t45.5 -73l-34 -45q-43 14 -81.5 40t-67.5 61.5t-46 82t-17 107.5v342h-24q-28 0 -50 -11.5t-37 -32t-23 -47t-8 -55.5v-212q0 -64 -20.5 -117.5t-55.5 -90t-83 -56t-102 -19.5q-129 0 -195.5 86t-66.5 243v74h54v-71
q0 -135 54.5 -204.5t153.5 -69.5q42 0 79.5 15t66 44.5t43.5 72t15 94.5v211q0 42 12.5 79t35.5 65.5t55.5 44t71.5 15.5h80v-392q0 -44 9 -77t23 -58t32 -43t38 -33l5 4q-13 18 -20.5 48.5t-7.5 54.5q0 34 13 61.5t36 45t53.5 26.5t62.5 9v-58zM45 167v74q0 43 26.5 72
t68.5 29h36v-37h-36q-25 0 -42 -18.5t-17 -45.5v-36h95v-38h-131zM605 -169q0 42 42 42t42 -42t-42 -42t-42 42z" />
    <glyph glyph-name="uniFBA9_uniFE98_uniFE8A.liga" unicode="&#xfba9;&#xfe98;&#xfe8a;" 
d="M1007 0q-50 0 -80 -26.5t-30 -65.5q0 -32 10.5 -69t45.5 -73l-34 -45q-43 14 -81.5 40t-67.5 61.5t-46 82t-17 107.5v342h-24q-28 0 -50 -11.5t-37 -32t-23 -47t-8 -55.5v-212q0 -64 -20.5 -117.5t-55.5 -90t-83 -56t-102 -19.5q-129 0 -195.5 86t-66.5 243v74h54v-71
q0 -135 54.5 -204.5t153.5 -69.5q42 0 79.5 15t66 44.5t43.5 72t15 94.5v211q0 42 12.5 79t35.5 65.5t55.5 44t71.5 15.5h80v-392q0 -44 9 -77t23 -58t32 -43t38 -33l5 4q-13 18 -20.5 48.5t-7.5 54.5q0 34 13 61.5t36 45t53.5 26.5t62.5 9v-58zM45 167v74q0 43 26.5 72
t68.5 29h36v-37h-36q-25 0 -42 -18.5t-17 -45.5v-36h95v-38h-131zM586 615q0 41 41 41q18 0 28.5 -10.5t10.5 -30.5t-10.5 -29.5t-28.5 -9.5q-20 0 -30.5 9t-10.5 30zM688 615q0 20 10.5 30.5t28.5 10.5q41 0 41 -41q0 -21 -10.5 -30t-30.5 -9q-18 0 -28.5 9.5t-10.5 29.5z
" />
    <glyph glyph-name="uniFBA9_uniFE9C_uniFE8A.liga" unicode="&#xfba9;&#xfe9c;&#xfe8a;" 
d="M1007 0q-50 0 -80 -26.5t-30 -65.5q0 -32 10.5 -69t45.5 -73l-34 -45q-43 14 -81.5 40t-67.5 61.5t-46 82t-17 107.5v342h-24q-28 0 -50 -11.5t-37 -32t-23 -47t-8 -55.5v-212q0 -64 -20.5 -117.5t-55.5 -90t-83 -56t-102 -19.5q-129 0 -195.5 86t-66.5 243v74h54v-71
q0 -135 54.5 -204.5t153.5 -69.5q42 0 79.5 15t66 44.5t43.5 72t15 94.5v211q0 42 12.5 79t35.5 65.5t55.5 44t71.5 15.5h80v-392q0 -44 9 -77t23 -58t32 -43t38 -33l5 4q-13 18 -20.5 48.5t-7.5 54.5q0 34 13 61.5t36 45t53.5 26.5t62.5 9v-58zM45 167v74q0 43 26.5 72
t68.5 29h36v-37h-36q-25 0 -42 -18.5t-17 -45.5v-36h95v-38h-131zM582 572q0 41 40 41q20 0 30 -10.5t10 -30.5q0 -19 -10 -29t-30 -10t-30 8.5t-10 30.5zM690 572q0 20 10 30.5t30 10.5q40 0 40 -41q0 -22 -10 -30.5t-30 -8.5t-30 10t-10 29zM635 674q0 24 10.5 32.5
t30.5 8.5t30.5 -8.5t10.5 -32.5q0 -20 -11.5 -30.5t-29.5 -10.5t-29.5 10.5t-11.5 30.5z" />
    <glyph glyph-name="uniFBA9_uniFEE8_uniFE8A.liga" unicode="&#xfba9;&#xfee8;&#xfe8a;" 
d="M1007 0q-50 0 -80 -26.5t-30 -65.5q0 -32 10.5 -69t45.5 -73l-34 -45q-43 14 -81.5 40t-67.5 61.5t-46 82t-17 107.5v342h-24q-28 0 -50 -11.5t-37 -32t-23 -47t-8 -55.5v-212q0 -64 -20.5 -117.5t-55.5 -90t-83 -56t-102 -19.5q-129 0 -195.5 86t-66.5 243v74h54v-71
q0 -135 54.5 -204.5t153.5 -69.5q42 0 79.5 15t66 44.5t43.5 72t15 94.5v211q0 42 12.5 79t35.5 65.5t55.5 44t71.5 15.5h80v-392q0 -44 9 -77t23 -58t32 -43t38 -33l5 4q-13 18 -20.5 48.5t-7.5 54.5q0 34 13 61.5t36 45t53.5 26.5t62.5 9v-58zM45 167v74q0 43 26.5 72
t68.5 29h36v-37h-36q-25 0 -42 -18.5t-17 -45.5v-36h95v-38h-131zM675 615q0 44 43 44t43 -44q0 -43 -43 -43t-43 43z" />
    <glyph glyph-name="uniFBA9_uniFBE9_uniFE8A.liga" unicode="&#xfba9;&#xfbe9;&#xfe8a;" 
d="M1007 0q-50 0 -80 -26.5t-30 -65.5q0 -32 10.5 -69t45.5 -73l-34 -45q-43 14 -81.5 40t-67.5 61.5t-46 82t-17 107.5v342h-24q-28 0 -50 -11.5t-37 -32t-23 -47t-8 -55.5v-212q0 -64 -20.5 -117.5t-55.5 -90t-83 -56t-102 -19.5q-129 0 -195.5 86t-66.5 243v74h54v-71
q0 -135 54.5 -204.5t153.5 -69.5q42 0 79.5 15t66 44.5t43.5 72t15 94.5v211q0 42 12.5 79t35.5 65.5t55.5 44t71.5 15.5h80v-392q0 -44 9 -77t23 -58t32 -43t38 -33l5 4q-13 18 -20.5 48.5t-7.5 54.5q0 34 13 61.5t36 45t53.5 26.5t62.5 9v-58zM45 167v74q0 43 26.5 72
t68.5 29h36v-37h-36q-25 0 -42 -18.5t-17 -45.5v-36h95v-38h-131z" />
    <glyph glyph-name="uniFBA9_uniFEF4_uniFE8A.liga" unicode="&#xfba9;&#xfef4;&#xfe8a;" 
d="M1007 0q-50 0 -80 -26.5t-30 -65.5q0 -32 10.5 -69t45.5 -73l-34 -45q-43 14 -81.5 40t-67.5 61.5t-46 82t-17 107.5v342h-24q-28 0 -50 -11.5t-37 -32t-23 -47t-8 -55.5v-212q0 -64 -20.5 -117.5t-55.5 -90t-83 -56t-102 -19.5q-129 0 -195.5 86t-66.5 243v74h54v-71
q0 -135 54.5 -204.5t153.5 -69.5q42 0 79.5 15t66 44.5t43.5 72t15 94.5v211q0 42 12.5 79t35.5 65.5t55.5 44t71.5 15.5h80v-392q0 -44 9 -77t23 -58t32 -43t38 -33l5 4q-13 18 -20.5 48.5t-7.5 54.5q0 34 13 61.5t36 45t53.5 26.5t62.5 9v-58zM45 167v74q0 43 26.5 72
t68.5 29h36v-37h-36q-25 0 -42 -18.5t-17 -45.5v-36h95v-38h-131zM560 -202q0 39 39 39q19 0 28.5 -9.5t9.5 -29.5t-9.5 -29t-28.5 -9t-29 8.5t-10 29.5zM659 -202q0 20 9.5 29.5t28.5 9.5q39 0 39 -39q0 -21 -10 -29.5t-29 -8.5t-28.5 9t-9.5 29z" />
    <glyph glyph-name="uniFBA9_uniFB69_uniFE8A.liga" unicode="&#xfba9;&#xfb69;&#xfe8a;" 
d="M1007 0q-50 0 -80 -26.5t-30 -65.5q0 -32 10.5 -69t45.5 -73l-34 -45q-43 14 -81.5 40t-67.5 61.5t-46 82t-17 107.5v342h-24q-28 0 -50 -11.5t-37 -32t-23 -47t-8 -55.5v-212q0 -64 -20.5 -117.5t-55.5 -90t-83 -56t-102 -19.5q-129 0 -195.5 86t-66.5 243v74h54v-71
q0 -135 54.5 -204.5t153.5 -69.5q42 0 79.5 15t66 44.5t43.5 72t15 94.5v211q0 42 12.5 79t35.5 65.5t55.5 44t71.5 15.5h80v-392q0 -44 9 -77t23 -58t32 -43t38 -33l5 4q-13 18 -20.5 48.5t-7.5 54.5q0 34 13 61.5t36 45t53.5 26.5t62.5 9v-58zM45 167v74q0 43 26.5 72
t68.5 29h36v-37h-36q-25 0 -42 -18.5t-17 -45.5v-36h95v-38h-131zM574 533v33h34v128h33v-57q0 -4 -0.5 -12.5t-3.5 -15.5l3 -1l6 9q12 17 26.5 26.5t31.5 9.5q21 0 38.5 -14t17.5 -49v-57h-186zM728 586q0 14 -5.5 23.5t-18.5 9.5q-12 0 -19.5 -7t-17.5 -17l-22 -29h83v20z
" />
    <glyph glyph-name="uniFBA9_uniFB59_uniFE8A.liga" unicode="&#xfba9;&#xfb59;&#xfe8a;" 
d="M1007 0q-50 0 -80 -26.5t-30 -65.5q0 -32 10.5 -69t45.5 -73l-34 -45q-43 14 -81.5 40t-67.5 61.5t-46 82t-17 107.5v342h-24q-28 0 -50 -11.5t-37 -32t-23 -47t-8 -55.5v-212q0 -64 -20.5 -117.5t-55.5 -90t-83 -56t-102 -19.5q-129 0 -195.5 86t-66.5 243v74h54v-71
q0 -135 54.5 -204.5t153.5 -69.5q42 0 79.5 15t66 44.5t43.5 72t15 94.5v211q0 42 12.5 79t35.5 65.5t55.5 44t71.5 15.5h80v-392q0 -44 9 -77t23 -58t32 -43t38 -33l5 4q-13 18 -20.5 48.5t-7.5 54.5q0 34 13 61.5t36 45t53.5 26.5t62.5 9v-58zM45 167v74q0 43 26.5 72
t68.5 29h36v-37h-36q-25 0 -42 -18.5t-17 -45.5v-36h95v-38h-131zM739 -203q0 -41 -40 -41q-18 0 -28 10.5t-10 30.5q0 18 10 28t28 10q20 0 30 -8.5t10 -29.5zM635 -203q0 -20 -10 -30.5t-28 -10.5q-40 0 -40 41q0 21 10 29.5t30 8.5q18 0 28 -10t10 -28zM688 -303
q0 -22 -10 -31t-30 -9t-30 9t-10 31q0 20 11 30.5t29 10.5t29 -10.5t11 -30.5z" />
    <glyph glyph-name="uniFBA9_uniFBFF_uniFE8A.liga" unicode="&#xfba9;&#xfbff;&#xfe8a;" 
d="M1007 0q-50 0 -80 -26.5t-30 -65.5q0 -32 10.5 -69t45.5 -73l-34 -45q-43 14 -81.5 40t-67.5 61.5t-46 82t-17 107.5v342h-24q-28 0 -50 -11.5t-37 -32t-23 -47t-8 -55.5v-212q0 -64 -20.5 -117.5t-55.5 -90t-83 -56t-102 -19.5q-129 0 -195.5 86t-66.5 243v74h54v-71
q0 -135 54.5 -204.5t153.5 -69.5q42 0 79.5 15t66 44.5t43.5 72t15 94.5v211q0 42 12.5 79t35.5 65.5t55.5 44t71.5 15.5h80v-392q0 -44 9 -77t23 -58t32 -43t38 -33l5 4q-13 18 -20.5 48.5t-7.5 54.5q0 34 13 61.5t36 45t53.5 26.5t62.5 9v-58zM45 167v74q0 43 26.5 72
t68.5 29h36v-37h-36q-25 0 -42 -18.5t-17 -45.5v-36h95v-38h-131zM560 -202q0 39 39 39q19 0 28.5 -9.5t9.5 -29.5t-9.5 -29t-28.5 -9t-29 8.5t-10 29.5zM659 -202q0 20 9.5 29.5t28.5 9.5q39 0 39 -39q0 -21 -10 -29.5t-29 -8.5t-28.5 9t-9.5 29z" />
    <glyph glyph-name="uniFBA9_uniFE8C_uniFEF0.liga" unicode="&#xfba9;&#xfe8c;&#xfef0;" 
d="M1007 0q-50 0 -80 -26.5t-30 -65.5q0 -32 10.5 -69t45.5 -73l-34 -45q-43 14 -81.5 40t-67.5 61.5t-46 82t-17 107.5v342h-24q-28 0 -50 -11.5t-37 -32t-23 -47t-8 -55.5v-212q0 -64 -20.5 -117.5t-55.5 -90t-83 -56t-102 -19.5q-129 0 -195.5 86t-66.5 243v74h54v-71
q0 -135 54.5 -204.5t153.5 -69.5q42 0 79.5 15t66 44.5t43.5 72t15 94.5v211q0 42 12.5 79t35.5 65.5t55.5 44t71.5 15.5h80v-392q0 -44 9 -77t23 -58t32 -43t38 -33l5 4q-13 18 -20.5 48.5t-7.5 54.5q0 34 13 61.5t36 45t53.5 26.5t62.5 9v-58zM635 531v74q0 43 26.5 72
t68.5 29h36v-37h-36q-25 0 -42 -18.5t-17 -45.5v-36h95v-38h-131z" />
    <glyph glyph-name="uniFBA9_uniFE92_uniFEF0.liga" unicode="&#xfba9;&#xfe92;&#xfef0;" 
d="M1007 0q-50 0 -80 -26.5t-30 -65.5q0 -32 10.5 -69t45.5 -73l-34 -45q-43 14 -81.5 40t-67.5 61.5t-46 82t-17 107.5v342h-24q-28 0 -50 -11.5t-37 -32t-23 -47t-8 -55.5v-212q0 -64 -20.5 -117.5t-55.5 -90t-83 -56t-102 -19.5q-129 0 -195.5 86t-66.5 243v74h54v-71
q0 -135 54.5 -204.5t153.5 -69.5q42 0 79.5 15t66 44.5t43.5 72t15 94.5v211q0 42 12.5 79t35.5 65.5t55.5 44t71.5 15.5h80v-392q0 -44 9 -77t23 -58t32 -43t38 -33l5 4q-13 18 -20.5 48.5t-7.5 54.5q0 34 13 61.5t36 45t53.5 26.5t62.5 9v-58zM605 -169q0 42 42 42t42 -42
t-42 -42t-42 42z" />
    <glyph glyph-name="uniFBA9_uniFE98_uniFEF0.liga" unicode="&#xfba9;&#xfe98;&#xfef0;" 
d="M1007 0q-50 0 -80 -26.5t-30 -65.5q0 -32 10.5 -69t45.5 -73l-34 -45q-43 14 -81.5 40t-67.5 61.5t-46 82t-17 107.5v342h-24q-28 0 -50 -11.5t-37 -32t-23 -47t-8 -55.5v-212q0 -64 -20.5 -117.5t-55.5 -90t-83 -56t-102 -19.5q-129 0 -195.5 86t-66.5 243v74h54v-71
q0 -135 54.5 -204.5t153.5 -69.5q42 0 79.5 15t66 44.5t43.5 72t15 94.5v211q0 42 12.5 79t35.5 65.5t55.5 44t71.5 15.5h80v-392q0 -44 9 -77t23 -58t32 -43t38 -33l5 4q-13 18 -20.5 48.5t-7.5 54.5q0 34 13 61.5t36 45t53.5 26.5t62.5 9v-58zM586 615q0 41 41 41
q18 0 28.5 -10.5t10.5 -30.5t-10.5 -29.5t-28.5 -9.5q-20 0 -30.5 9t-10.5 30zM688 615q0 20 10.5 30.5t28.5 10.5q41 0 41 -41q0 -21 -10.5 -30t-30.5 -9q-18 0 -28.5 9.5t-10.5 29.5z" />
    <glyph glyph-name="uniFBA9_uniFE9C_uniFEF0.liga" unicode="&#xfba9;&#xfe9c;&#xfef0;" 
d="M1007 0q-50 0 -80 -26.5t-30 -65.5q0 -32 10.5 -69t45.5 -73l-34 -45q-43 14 -81.5 40t-67.5 61.5t-46 82t-17 107.5v342h-24q-28 0 -50 -11.5t-37 -32t-23 -47t-8 -55.5v-212q0 -64 -20.5 -117.5t-55.5 -90t-83 -56t-102 -19.5q-129 0 -195.5 86t-66.5 243v74h54v-71
q0 -135 54.5 -204.5t153.5 -69.5q42 0 79.5 15t66 44.5t43.5 72t15 94.5v211q0 42 12.5 79t35.5 65.5t55.5 44t71.5 15.5h80v-392q0 -44 9 -77t23 -58t32 -43t38 -33l5 4q-13 18 -20.5 48.5t-7.5 54.5q0 34 13 61.5t36 45t53.5 26.5t62.5 9v-58zM582 572q0 41 40 41
q20 0 30 -10.5t10 -30.5q0 -19 -10 -29t-30 -10t-30 8.5t-10 30.5zM690 572q0 20 10 30.5t30 10.5q40 0 40 -41q0 -22 -10 -30.5t-30 -8.5t-30 10t-10 29zM635 674q0 24 10.5 32.5t30.5 8.5t30.5 -8.5t10.5 -32.5q0 -20 -11.5 -30.5t-29.5 -10.5t-29.5 10.5t-11.5 30.5z" />
    <glyph glyph-name="uniFBA9_uniFEE8_uniFEF0.liga" unicode="&#xfba9;&#xfee8;&#xfef0;" 
d="M1007 0q-50 0 -80 -26.5t-30 -65.5q0 -32 10.5 -69t45.5 -73l-34 -45q-43 14 -81.5 40t-67.5 61.5t-46 82t-17 107.5v342h-24q-28 0 -50 -11.5t-37 -32t-23 -47t-8 -55.5v-212q0 -64 -20.5 -117.5t-55.5 -90t-83 -56t-102 -19.5q-129 0 -195.5 86t-66.5 243v74h54v-71
q0 -135 54.5 -204.5t153.5 -69.5q42 0 79.5 15t66 44.5t43.5 72t15 94.5v211q0 42 12.5 79t35.5 65.5t55.5 44t71.5 15.5h80v-392q0 -44 9 -77t23 -58t32 -43t38 -33l5 4q-13 18 -20.5 48.5t-7.5 54.5q0 34 13 61.5t36 45t53.5 26.5t62.5 9v-58zM675 615q0 44 43 44t43 -44
q0 -43 -43 -43t-43 43z" />
    <glyph glyph-name="uniFBA9_uniFBE9_uniFEF0.liga" unicode="&#xfba9;&#xfbe9;&#xfef0;" 
d="M1007 0q-50 0 -80 -26.5t-30 -65.5q0 -32 10.5 -69t45.5 -73l-34 -45q-43 14 -81.5 40t-67.5 61.5t-46 82t-17 107.5v342h-24q-28 0 -50 -11.5t-37 -32t-23 -47t-8 -55.5v-212q0 -64 -20.5 -117.5t-55.5 -90t-83 -56t-102 -19.5q-129 0 -195.5 86t-66.5 243v74h54v-71
q0 -135 54.5 -204.5t153.5 -69.5q42 0 79.5 15t66 44.5t43.5 72t15 94.5v211q0 42 12.5 79t35.5 65.5t55.5 44t71.5 15.5h80v-392q0 -44 9 -77t23 -58t32 -43t38 -33l5 4q-13 18 -20.5 48.5t-7.5 54.5q0 34 13 61.5t36 45t53.5 26.5t62.5 9v-58z" />
    <glyph glyph-name="uniFBA9_uniFEF4_uniFEF0.liga" unicode="&#xfba9;&#xfef4;&#xfef0;" 
d="M1007 0q-50 0 -80 -26.5t-30 -65.5q0 -32 10.5 -69t45.5 -73l-34 -45q-43 14 -81.5 40t-67.5 61.5t-46 82t-17 107.5v342h-24q-28 0 -50 -11.5t-37 -32t-23 -47t-8 -55.5v-212q0 -64 -20.5 -117.5t-55.5 -90t-83 -56t-102 -19.5q-129 0 -195.5 86t-66.5 243v74h54v-71
q0 -135 54.5 -204.5t153.5 -69.5q42 0 79.5 15t66 44.5t43.5 72t15 94.5v211q0 42 12.5 79t35.5 65.5t55.5 44t71.5 15.5h80v-392q0 -44 9 -77t23 -58t32 -43t38 -33l5 4q-13 18 -20.5 48.5t-7.5 54.5q0 34 13 61.5t36 45t53.5 26.5t62.5 9v-58zM560 -202q0 39 39 39
q19 0 28.5 -9.5t9.5 -29.5t-9.5 -29t-28.5 -9t-29 8.5t-10 29.5zM659 -202q0 20 9.5 29.5t28.5 9.5q39 0 39 -39q0 -21 -10 -29.5t-29 -8.5t-28.5 9t-9.5 29z" />
    <glyph glyph-name="uniFBA9_uniFB69_uniFEF0.liga" unicode="&#xfba9;&#xfb69;&#xfef0;" 
d="M1007 0q-50 0 -80 -26.5t-30 -65.5q0 -32 10.5 -69t45.5 -73l-34 -45q-43 14 -81.5 40t-67.5 61.5t-46 82t-17 107.5v342h-24q-28 0 -50 -11.5t-37 -32t-23 -47t-8 -55.5v-212q0 -64 -20.5 -117.5t-55.5 -90t-83 -56t-102 -19.5q-129 0 -195.5 86t-66.5 243v74h54v-71
q0 -135 54.5 -204.5t153.5 -69.5q42 0 79.5 15t66 44.5t43.5 72t15 94.5v211q0 42 12.5 79t35.5 65.5t55.5 44t71.5 15.5h80v-392q0 -44 9 -77t23 -58t32 -43t38 -33l5 4q-13 18 -20.5 48.5t-7.5 54.5q0 34 13 61.5t36 45t53.5 26.5t62.5 9v-58zM574 533v33h34v128h33v-57
q0 -4 -0.5 -12.5t-3.5 -15.5l3 -1l6 9q12 17 26.5 26.5t31.5 9.5q21 0 38.5 -14t17.5 -49v-57h-186zM728 586q0 14 -5.5 23.5t-18.5 9.5q-12 0 -19.5 -7t-17.5 -17l-22 -29h83v20z" />
    <glyph glyph-name="uniFBA9_uniFB59_uniFEF0.liga" unicode="&#xfba9;&#xfb59;&#xfef0;" 
d="M1007 0q-50 0 -80 -26.5t-30 -65.5q0 -32 10.5 -69t45.5 -73l-34 -45q-43 14 -81.5 40t-67.5 61.5t-46 82t-17 107.5v342h-24q-28 0 -50 -11.5t-37 -32t-23 -47t-8 -55.5v-212q0 -64 -20.5 -117.5t-55.5 -90t-83 -56t-102 -19.5q-129 0 -195.5 86t-66.5 243v74h54v-71
q0 -135 54.5 -204.5t153.5 -69.5q42 0 79.5 15t66 44.5t43.5 72t15 94.5v211q0 42 12.5 79t35.5 65.5t55.5 44t71.5 15.5h80v-392q0 -44 9 -77t23 -58t32 -43t38 -33l5 4q-13 18 -20.5 48.5t-7.5 54.5q0 34 13 61.5t36 45t53.5 26.5t62.5 9v-58zM739 -203q0 -41 -40 -41
q-18 0 -28 10.5t-10 30.5q0 18 10 28t28 10q20 0 30 -8.5t10 -29.5zM635 -203q0 -20 -10 -30.5t-28 -10.5q-40 0 -40 41q0 21 10 29.5t30 8.5q18 0 28 -10t10 -28zM688 -303q0 -22 -10 -31t-30 -9t-30 9t-10 31q0 20 11 30.5t29 10.5t29 -10.5t11 -30.5z" />
    <glyph glyph-name="uniFBA9_uniFBFF_uniFEF0.liga" unicode="&#xfba9;&#xfbff;&#xfef0;" 
d="M1007 0q-50 0 -80 -26.5t-30 -65.5q0 -32 10.5 -69t45.5 -73l-34 -45q-43 14 -81.5 40t-67.5 61.5t-46 82t-17 107.5v342h-24q-28 0 -50 -11.5t-37 -32t-23 -47t-8 -55.5v-212q0 -64 -20.5 -117.5t-55.5 -90t-83 -56t-102 -19.5q-129 0 -195.5 86t-66.5 243v74h54v-71
q0 -135 54.5 -204.5t153.5 -69.5q42 0 79.5 15t66 44.5t43.5 72t15 94.5v211q0 42 12.5 79t35.5 65.5t55.5 44t71.5 15.5h80v-392q0 -44 9 -77t23 -58t32 -43t38 -33l5 4q-13 18 -20.5 48.5t-7.5 54.5q0 34 13 61.5t36 45t53.5 26.5t62.5 9v-58zM560 -202q0 39 39 39
q19 0 28.5 -9.5t9.5 -29.5t-9.5 -29t-28.5 -9t-29 8.5t-10 29.5zM659 -202q0 20 9.5 29.5t28.5 9.5q39 0 39 -39q0 -21 -10 -29.5t-29 -8.5t-28.5 9t-9.5 29z" />
    <glyph glyph-name="uniFBA9_uniFE8C_uniFEF2.liga" unicode="&#xfba9;&#xfe8c;&#xfef2;" 
d="M1007 0q-50 0 -80 -26.5t-30 -65.5q0 -32 10.5 -69t45.5 -73l-34 -45q-43 14 -81.5 40t-67.5 61.5t-46 82t-17 107.5v342h-24q-28 0 -50 -11.5t-37 -32t-23 -47t-8 -55.5v-212q0 -64 -20.5 -117.5t-55.5 -90t-83 -56t-102 -19.5q-129 0 -195.5 86t-66.5 243v74h54v-71
q0 -135 54.5 -204.5t153.5 -69.5q42 0 79.5 15t66 44.5t43.5 72t15 94.5v211q0 42 12.5 79t35.5 65.5t55.5 44t71.5 15.5h80v-392q0 -44 9 -77t23 -58t32 -43t38 -33l5 4q-13 18 -20.5 48.5t-7.5 54.5q0 34 13 61.5t36 45t53.5 26.5t62.5 9v-58zM635 531v74q0 43 26.5 72
t68.5 29h36v-37h-36q-25 0 -42 -18.5t-17 -45.5v-36h95v-38h-131zM228 -381q0 41 41 41q18 0 28.5 -10.5t10.5 -30.5t-10.5 -29.5t-28.5 -9.5q-20 0 -30.5 9t-10.5 30zM330 -381q0 20 10.5 30.5t28.5 10.5q41 0 41 -41q0 -21 -10.5 -30t-30.5 -9q-18 0 -28.5 9.5t-10.5 29.5
z" />
    <glyph glyph-name="uniFBA9_uniFE92_uniFEF2.liga" unicode="&#xfba9;&#xfe92;&#xfef2;" 
d="M1007 0q-50 0 -80 -26.5t-30 -65.5q0 -32 10.5 -69t45.5 -73l-34 -45q-43 14 -81.5 40t-67.5 61.5t-46 82t-17 107.5v342h-24q-28 0 -50 -11.5t-37 -32t-23 -47t-8 -55.5v-212q0 -64 -20.5 -117.5t-55.5 -90t-83 -56t-102 -19.5q-129 0 -195.5 86t-66.5 243v74h54v-71
q0 -135 54.5 -204.5t153.5 -69.5q42 0 79.5 15t66 44.5t43.5 72t15 94.5v211q0 42 12.5 79t35.5 65.5t55.5 44t71.5 15.5h80v-392q0 -44 9 -77t23 -58t32 -43t38 -33l5 4q-13 18 -20.5 48.5t-7.5 54.5q0 34 13 61.5t36 45t53.5 26.5t62.5 9v-58zM605 -169q0 42 42 42t42 -42
t-42 -42t-42 42zM228 -381q0 41 41 41q18 0 28.5 -10.5t10.5 -30.5t-10.5 -29.5t-28.5 -9.5q-20 0 -30.5 9t-10.5 30zM330 -381q0 20 10.5 30.5t28.5 10.5q41 0 41 -41q0 -21 -10.5 -30t-30.5 -9q-18 0 -28.5 9.5t-10.5 29.5z" />
    <glyph glyph-name="uniFBA9_uniFE98_uniFEF2.liga" unicode="&#xfba9;&#xfe98;&#xfef2;" 
d="M1007 0q-50 0 -80 -26.5t-30 -65.5q0 -32 10.5 -69t45.5 -73l-34 -45q-43 14 -81.5 40t-67.5 61.5t-46 82t-17 107.5v342h-24q-28 0 -50 -11.5t-37 -32t-23 -47t-8 -55.5v-212q0 -64 -20.5 -117.5t-55.5 -90t-83 -56t-102 -19.5q-129 0 -195.5 86t-66.5 243v74h54v-71
q0 -135 54.5 -204.5t153.5 -69.5q42 0 79.5 15t66 44.5t43.5 72t15 94.5v211q0 42 12.5 79t35.5 65.5t55.5 44t71.5 15.5h80v-392q0 -44 9 -77t23 -58t32 -43t38 -33l5 4q-13 18 -20.5 48.5t-7.5 54.5q0 34 13 61.5t36 45t53.5 26.5t62.5 9v-58zM586 615q0 41 41 41
q18 0 28.5 -10.5t10.5 -30.5t-10.5 -29.5t-28.5 -9.5q-20 0 -30.5 9t-10.5 30zM688 615q0 20 10.5 30.5t28.5 10.5q41 0 41 -41q0 -21 -10.5 -30t-30.5 -9q-18 0 -28.5 9.5t-10.5 29.5zM228 -381q0 41 41 41q18 0 28.5 -10.5t10.5 -30.5t-10.5 -29.5t-28.5 -9.5
q-20 0 -30.5 9t-10.5 30zM330 -381q0 20 10.5 30.5t28.5 10.5q41 0 41 -41q0 -21 -10.5 -30t-30.5 -9q-18 0 -28.5 9.5t-10.5 29.5z" />
    <glyph glyph-name="uniFBA9_uniFE9C_uniFEF2.liga" unicode="&#xfba9;&#xfe9c;&#xfef2;" 
d="M1007 0q-50 0 -80 -26.5t-30 -65.5q0 -32 10.5 -69t45.5 -73l-34 -45q-43 14 -81.5 40t-67.5 61.5t-46 82t-17 107.5v342h-24q-28 0 -50 -11.5t-37 -32t-23 -47t-8 -55.5v-212q0 -64 -20.5 -117.5t-55.5 -90t-83 -56t-102 -19.5q-129 0 -195.5 86t-66.5 243v74h54v-71
q0 -135 54.5 -204.5t153.5 -69.5q42 0 79.5 15t66 44.5t43.5 72t15 94.5v211q0 42 12.5 79t35.5 65.5t55.5 44t71.5 15.5h80v-392q0 -44 9 -77t23 -58t32 -43t38 -33l5 4q-13 18 -20.5 48.5t-7.5 54.5q0 34 13 61.5t36 45t53.5 26.5t62.5 9v-58zM582 572q0 41 40 41
q20 0 30 -10.5t10 -30.5q0 -19 -10 -29t-30 -10t-30 8.5t-10 30.5zM690 572q0 20 10 30.5t30 10.5q40 0 40 -41q0 -22 -10 -30.5t-30 -8.5t-30 10t-10 29zM635 674q0 24 10.5 32.5t30.5 8.5t30.5 -8.5t10.5 -32.5q0 -20 -11.5 -30.5t-29.5 -10.5t-29.5 10.5t-11.5 30.5z
M228 -381q0 41 41 41q18 0 28.5 -10.5t10.5 -30.5t-10.5 -29.5t-28.5 -9.5q-20 0 -30.5 9t-10.5 30zM330 -381q0 20 10.5 30.5t28.5 10.5q41 0 41 -41q0 -21 -10.5 -30t-30.5 -9q-18 0 -28.5 9.5t-10.5 29.5z" />
    <glyph glyph-name="uniFBA9_uniFEE8_uniFEF2.liga" unicode="&#xfba9;&#xfee8;&#xfef2;" 
d="M1007 0q-50 0 -80 -26.5t-30 -65.5q0 -32 10.5 -69t45.5 -73l-34 -45q-43 14 -81.5 40t-67.5 61.5t-46 82t-17 107.5v342h-24q-28 0 -50 -11.5t-37 -32t-23 -47t-8 -55.5v-212q0 -64 -20.5 -117.5t-55.5 -90t-83 -56t-102 -19.5q-129 0 -195.5 86t-66.5 243v74h54v-71
q0 -135 54.5 -204.5t153.5 -69.5q42 0 79.5 15t66 44.5t43.5 72t15 94.5v211q0 42 12.5 79t35.5 65.5t55.5 44t71.5 15.5h80v-392q0 -44 9 -77t23 -58t32 -43t38 -33l5 4q-13 18 -20.5 48.5t-7.5 54.5q0 34 13 61.5t36 45t53.5 26.5t62.5 9v-58zM675 615q0 44 43 44t43 -44
q0 -43 -43 -43t-43 43zM228 -381q0 41 41 41q18 0 28.5 -10.5t10.5 -30.5t-10.5 -29.5t-28.5 -9.5q-20 0 -30.5 9t-10.5 30zM330 -381q0 20 10.5 30.5t28.5 10.5q41 0 41 -41q0 -21 -10.5 -30t-30.5 -9q-18 0 -28.5 9.5t-10.5 29.5z" />
    <glyph glyph-name="uniFBA9_uniFBE9_uniFEF2.liga" unicode="&#xfba9;&#xfbe9;&#xfef2;" 
d="M1007 0q-50 0 -80 -26.5t-30 -65.5q0 -32 10.5 -69t45.5 -73l-34 -45q-43 14 -81.5 40t-67.5 61.5t-46 82t-17 107.5v342h-24q-28 0 -50 -11.5t-37 -32t-23 -47t-8 -55.5v-212q0 -64 -20.5 -117.5t-55.5 -90t-83 -56t-102 -19.5q-129 0 -195.5 86t-66.5 243v74h54v-71
q0 -135 54.5 -204.5t153.5 -69.5q42 0 79.5 15t66 44.5t43.5 72t15 94.5v211q0 42 12.5 79t35.5 65.5t55.5 44t71.5 15.5h80v-392q0 -44 9 -77t23 -58t32 -43t38 -33l5 4q-13 18 -20.5 48.5t-7.5 54.5q0 34 13 61.5t36 45t53.5 26.5t62.5 9v-58zM228 -381q0 41 41 41
q18 0 28.5 -10.5t10.5 -30.5t-10.5 -29.5t-28.5 -9.5q-20 0 -30.5 9t-10.5 30zM330 -381q0 20 10.5 30.5t28.5 10.5q41 0 41 -41q0 -21 -10.5 -30t-30.5 -9q-18 0 -28.5 9.5t-10.5 29.5z" />
    <glyph glyph-name="uniFBA9_uniFEF4_uniFEF2.liga" unicode="&#xfba9;&#xfef4;&#xfef2;" 
d="M1007 0q-50 0 -80 -26.5t-30 -65.5q0 -32 10.5 -69t45.5 -73l-34 -45q-43 14 -81.5 40t-67.5 61.5t-46 82t-17 107.5v342h-24q-28 0 -50 -11.5t-37 -32t-23 -47t-8 -55.5v-212q0 -64 -20.5 -117.5t-55.5 -90t-83 -56t-102 -19.5q-129 0 -195.5 86t-66.5 243v74h54v-71
q0 -135 54.5 -204.5t153.5 -69.5q42 0 79.5 15t66 44.5t43.5 72t15 94.5v211q0 42 12.5 79t35.5 65.5t55.5 44t71.5 15.5h80v-392q0 -44 9 -77t23 -58t32 -43t38 -33l5 4q-13 18 -20.5 48.5t-7.5 54.5q0 34 13 61.5t36 45t53.5 26.5t62.5 9v-58zM560 -202q0 39 39 39
q19 0 28.5 -9.5t9.5 -29.5t-9.5 -29t-28.5 -9t-29 8.5t-10 29.5zM659 -202q0 20 9.5 29.5t28.5 9.5q39 0 39 -39q0 -21 -10 -29.5t-29 -8.5t-28.5 9t-9.5 29zM228 -381q0 41 41 41q18 0 28.5 -10.5t10.5 -30.5t-10.5 -29.5t-28.5 -9.5q-20 0 -30.5 9t-10.5 30zM330 -381
q0 20 10.5 30.5t28.5 10.5q41 0 41 -41q0 -21 -10.5 -30t-30.5 -9q-18 0 -28.5 9.5t-10.5 29.5z" />
    <glyph glyph-name="uniFBA9_uniFB69_uniFEF2.liga" unicode="&#xfba9;&#xfb69;&#xfef2;" 
d="M1007 0q-50 0 -80 -26.5t-30 -65.5q0 -32 10.5 -69t45.5 -73l-34 -45q-43 14 -81.5 40t-67.5 61.5t-46 82t-17 107.5v342h-24q-28 0 -50 -11.5t-37 -32t-23 -47t-8 -55.5v-212q0 -64 -20.5 -117.5t-55.5 -90t-83 -56t-102 -19.5q-129 0 -195.5 86t-66.5 243v74h54v-71
q0 -135 54.5 -204.5t153.5 -69.5q42 0 79.5 15t66 44.5t43.5 72t15 94.5v211q0 42 12.5 79t35.5 65.5t55.5 44t71.5 15.5h80v-392q0 -44 9 -77t23 -58t32 -43t38 -33l5 4q-13 18 -20.5 48.5t-7.5 54.5q0 34 13 61.5t36 45t53.5 26.5t62.5 9v-58zM574 533v33h34v128h33v-57
q0 -4 -0.5 -12.5t-3.5 -15.5l3 -1l6 9q12 17 26.5 26.5t31.5 9.5q21 0 38.5 -14t17.5 -49v-57h-186zM728 586q0 14 -5.5 23.5t-18.5 9.5q-12 0 -19.5 -7t-17.5 -17l-22 -29h83v20zM228 -381q0 41 41 41q18 0 28.5 -10.5t10.5 -30.5t-10.5 -29.5t-28.5 -9.5q-20 0 -30.5 9
t-10.5 30zM330 -381q0 20 10.5 30.5t28.5 10.5q41 0 41 -41q0 -21 -10.5 -30t-30.5 -9q-18 0 -28.5 9.5t-10.5 29.5z" />
    <glyph glyph-name="uniFBA9_uniFB59_uniFEF2.liga" unicode="&#xfba9;&#xfb59;&#xfef2;" 
d="M1007 0q-50 0 -80 -26.5t-30 -65.5q0 -32 10.5 -69t45.5 -73l-34 -45q-43 14 -81.5 40t-67.5 61.5t-46 82t-17 107.5v342h-24q-28 0 -50 -11.5t-37 -32t-23 -47t-8 -55.5v-212q0 -64 -20.5 -117.5t-55.5 -90t-83 -56t-102 -19.5q-129 0 -195.5 86t-66.5 243v74h54v-71
q0 -135 54.5 -204.5t153.5 -69.5q42 0 79.5 15t66 44.5t43.5 72t15 94.5v211q0 42 12.5 79t35.5 65.5t55.5 44t71.5 15.5h80v-392q0 -44 9 -77t23 -58t32 -43t38 -33l5 4q-13 18 -20.5 48.5t-7.5 54.5q0 34 13 61.5t36 45t53.5 26.5t62.5 9v-58zM739 -203q0 -41 -40 -41
q-18 0 -28 10.5t-10 30.5q0 18 10 28t28 10q20 0 30 -8.5t10 -29.5zM635 -203q0 -20 -10 -30.5t-28 -10.5q-40 0 -40 41q0 21 10 29.5t30 8.5q18 0 28 -10t10 -28zM688 -303q0 -22 -10 -31t-30 -9t-30 9t-10 31q0 20 11 30.5t29 10.5t29 -10.5t11 -30.5zM228 -381
q0 41 41 41q18 0 28.5 -10.5t10.5 -30.5t-10.5 -29.5t-28.5 -9.5q-20 0 -30.5 9t-10.5 30zM330 -381q0 20 10.5 30.5t28.5 10.5q41 0 41 -41q0 -21 -10.5 -30t-30.5 -9q-18 0 -28.5 9.5t-10.5 29.5z" />
    <glyph glyph-name="uniFBA9_uniFBFF_uniFEF2.liga" unicode="&#xfba9;&#xfbff;&#xfef2;" 
d="M1007 0q-50 0 -80 -26.5t-30 -65.5q0 -32 10.5 -69t45.5 -73l-34 -45q-43 14 -81.5 40t-67.5 61.5t-46 82t-17 107.5v342h-24q-28 0 -50 -11.5t-37 -32t-23 -47t-8 -55.5v-212q0 -64 -20.5 -117.5t-55.5 -90t-83 -56t-102 -19.5q-129 0 -195.5 86t-66.5 243v74h54v-71
q0 -135 54.5 -204.5t153.5 -69.5q42 0 79.5 15t66 44.5t43.5 72t15 94.5v211q0 42 12.5 79t35.5 65.5t55.5 44t71.5 15.5h80v-392q0 -44 9 -77t23 -58t32 -43t38 -33l5 4q-13 18 -20.5 48.5t-7.5 54.5q0 34 13 61.5t36 45t53.5 26.5t62.5 9v-58zM560 -202q0 39 39 39
q19 0 28.5 -9.5t9.5 -29.5t-9.5 -29t-28.5 -9t-29 8.5t-10 29.5zM659 -202q0 20 9.5 29.5t28.5 9.5q39 0 39 -39q0 -21 -10 -29.5t-29 -8.5t-28.5 9t-9.5 29zM228 -381q0 41 41 41q18 0 28.5 -10.5t10.5 -30.5t-10.5 -29.5t-28.5 -9.5q-20 0 -30.5 9t-10.5 30zM330 -381
q0 20 10.5 30.5t28.5 10.5q41 0 41 -41q0 -21 -10.5 -30t-30.5 -9q-18 0 -28.5 9.5t-10.5 29.5z" />
    <glyph glyph-name="uniFBA9_uniFE8C_uniFBFD.liga" unicode="&#xfba9;&#xfe8c;&#xfbfd;" 
d="M1007 0q-50 0 -80 -26.5t-30 -65.5q0 -32 10.5 -69t45.5 -73l-34 -45q-43 14 -81.5 40t-67.5 61.5t-46 82t-17 107.5v342h-24q-28 0 -50 -11.5t-37 -32t-23 -47t-8 -55.5v-212q0 -64 -20.5 -117.5t-55.5 -90t-83 -56t-102 -19.5q-129 0 -195.5 86t-66.5 243v74h54v-71
q0 -135 54.5 -204.5t153.5 -69.5q42 0 79.5 15t66 44.5t43.5 72t15 94.5v211q0 42 12.5 79t35.5 65.5t55.5 44t71.5 15.5h80v-392q0 -44 9 -77t23 -58t32 -43t38 -33l5 4q-13 18 -20.5 48.5t-7.5 54.5q0 34 13 61.5t36 45t53.5 26.5t62.5 9v-58zM635 531v74q0 43 26.5 72
t68.5 29h36v-37h-36q-25 0 -42 -18.5t-17 -45.5v-36h95v-38h-131z" />
    <glyph glyph-name="uniFBA9_uniFE92_uniFBFD.liga" unicode="&#xfba9;&#xfe92;&#xfbfd;" 
d="M1007 0q-50 0 -80 -26.5t-30 -65.5q0 -32 10.5 -69t45.5 -73l-34 -45q-43 14 -81.5 40t-67.5 61.5t-46 82t-17 107.5v342h-24q-28 0 -50 -11.5t-37 -32t-23 -47t-8 -55.5v-212q0 -64 -20.5 -117.5t-55.5 -90t-83 -56t-102 -19.5q-129 0 -195.5 86t-66.5 243v74h54v-71
q0 -135 54.5 -204.5t153.5 -69.5q42 0 79.5 15t66 44.5t43.5 72t15 94.5v211q0 42 12.5 79t35.5 65.5t55.5 44t71.5 15.5h80v-392q0 -44 9 -77t23 -58t32 -43t38 -33l5 4q-13 18 -20.5 48.5t-7.5 54.5q0 34 13 61.5t36 45t53.5 26.5t62.5 9v-58zM605 -169q0 42 42 42t42 -42
t-42 -42t-42 42z" />
    <glyph glyph-name="uniFBA9_uniFE98_uniFBFD.liga" unicode="&#xfba9;&#xfe98;&#xfbfd;" 
d="M1007 0q-50 0 -80 -26.5t-30 -65.5q0 -32 10.5 -69t45.5 -73l-34 -45q-43 14 -81.5 40t-67.5 61.5t-46 82t-17 107.5v342h-24q-28 0 -50 -11.5t-37 -32t-23 -47t-8 -55.5v-212q0 -64 -20.5 -117.5t-55.5 -90t-83 -56t-102 -19.5q-129 0 -195.5 86t-66.5 243v74h54v-71
q0 -135 54.5 -204.5t153.5 -69.5q42 0 79.5 15t66 44.5t43.5 72t15 94.5v211q0 42 12.5 79t35.5 65.5t55.5 44t71.5 15.5h80v-392q0 -44 9 -77t23 -58t32 -43t38 -33l5 4q-13 18 -20.5 48.5t-7.5 54.5q0 34 13 61.5t36 45t53.5 26.5t62.5 9v-58zM586 615q0 41 41 41
q18 0 28.5 -10.5t10.5 -30.5t-10.5 -29.5t-28.5 -9.5q-20 0 -30.5 9t-10.5 30zM688 615q0 20 10.5 30.5t28.5 10.5q41 0 41 -41q0 -21 -10.5 -30t-30.5 -9q-18 0 -28.5 9.5t-10.5 29.5z" />
    <glyph glyph-name="uniFBA9_uniFE9C_uniFBFD.liga" unicode="&#xfba9;&#xfe9c;&#xfbfd;" 
d="M1007 0q-50 0 -80 -26.5t-30 -65.5q0 -32 10.5 -69t45.5 -73l-34 -45q-43 14 -81.5 40t-67.5 61.5t-46 82t-17 107.5v342h-24q-28 0 -50 -11.5t-37 -32t-23 -47t-8 -55.5v-212q0 -64 -20.5 -117.5t-55.5 -90t-83 -56t-102 -19.5q-129 0 -195.5 86t-66.5 243v74h54v-71
q0 -135 54.5 -204.5t153.5 -69.5q42 0 79.5 15t66 44.5t43.5 72t15 94.5v211q0 42 12.5 79t35.5 65.5t55.5 44t71.5 15.5h80v-392q0 -44 9 -77t23 -58t32 -43t38 -33l5 4q-13 18 -20.5 48.5t-7.5 54.5q0 34 13 61.5t36 45t53.5 26.5t62.5 9v-58zM582 572q0 41 40 41
q20 0 30 -10.5t10 -30.5q0 -19 -10 -29t-30 -10t-30 8.5t-10 30.5zM690 572q0 20 10 30.5t30 10.5q40 0 40 -41q0 -22 -10 -30.5t-30 -8.5t-30 10t-10 29zM635 674q0 24 10.5 32.5t30.5 8.5t30.5 -8.5t10.5 -32.5q0 -20 -11.5 -30.5t-29.5 -10.5t-29.5 10.5t-11.5 30.5z" />
    <glyph glyph-name="uniFBA9_uniFEE8_uniFBFD.liga" unicode="&#xfba9;&#xfee8;&#xfbfd;" 
d="M1007 0q-50 0 -80 -26.5t-30 -65.5q0 -32 10.5 -69t45.5 -73l-34 -45q-43 14 -81.5 40t-67.5 61.5t-46 82t-17 107.5v342h-24q-28 0 -50 -11.5t-37 -32t-23 -47t-8 -55.5v-212q0 -64 -20.5 -117.5t-55.5 -90t-83 -56t-102 -19.5q-129 0 -195.5 86t-66.5 243v74h54v-71
q0 -135 54.5 -204.5t153.5 -69.5q42 0 79.5 15t66 44.5t43.5 72t15 94.5v211q0 42 12.5 79t35.5 65.5t55.5 44t71.5 15.5h80v-392q0 -44 9 -77t23 -58t32 -43t38 -33l5 4q-13 18 -20.5 48.5t-7.5 54.5q0 34 13 61.5t36 45t53.5 26.5t62.5 9v-58zM675 615q0 44 43 44t43 -44
q0 -43 -43 -43t-43 43z" />
    <glyph glyph-name="uniFBA9_uniFBE9_uniFBFD.liga" unicode="&#xfba9;&#xfbe9;&#xfbfd;" 
d="M1007 0q-50 0 -80 -26.5t-30 -65.5q0 -32 10.5 -69t45.5 -73l-34 -45q-43 14 -81.5 40t-67.5 61.5t-46 82t-17 107.5v342h-24q-28 0 -50 -11.5t-37 -32t-23 -47t-8 -55.5v-212q0 -64 -20.5 -117.5t-55.5 -90t-83 -56t-102 -19.5q-129 0 -195.5 86t-66.5 243v74h54v-71
q0 -135 54.5 -204.5t153.5 -69.5q42 0 79.5 15t66 44.5t43.5 72t15 94.5v211q0 42 12.5 79t35.5 65.5t55.5 44t71.5 15.5h80v-392q0 -44 9 -77t23 -58t32 -43t38 -33l5 4q-13 18 -20.5 48.5t-7.5 54.5q0 34 13 61.5t36 45t53.5 26.5t62.5 9v-58z" />
    <glyph glyph-name="uniFBA9_uniFEF4_uniFBFD.liga" unicode="&#xfba9;&#xfef4;&#xfbfd;" 
d="M1007 0q-50 0 -80 -26.5t-30 -65.5q0 -32 10.5 -69t45.5 -73l-34 -45q-43 14 -81.5 40t-67.5 61.5t-46 82t-17 107.5v342h-24q-28 0 -50 -11.5t-37 -32t-23 -47t-8 -55.5v-212q0 -64 -20.5 -117.5t-55.5 -90t-83 -56t-102 -19.5q-129 0 -195.5 86t-66.5 243v74h54v-71
q0 -135 54.5 -204.5t153.5 -69.5q42 0 79.5 15t66 44.5t43.5 72t15 94.5v211q0 42 12.5 79t35.5 65.5t55.5 44t71.5 15.5h80v-392q0 -44 9 -77t23 -58t32 -43t38 -33l5 4q-13 18 -20.5 48.5t-7.5 54.5q0 34 13 61.5t36 45t53.5 26.5t62.5 9v-58zM560 -202q0 39 39 39
q19 0 28.5 -9.5t9.5 -29.5t-9.5 -29t-28.5 -9t-29 8.5t-10 29.5zM659 -202q0 20 9.5 29.5t28.5 9.5q39 0 39 -39q0 -21 -10 -29.5t-29 -8.5t-28.5 9t-9.5 29z" />
    <glyph glyph-name="uniFBA9_uniFB69_uniFBFD.liga" unicode="&#xfba9;&#xfb69;&#xfbfd;" 
d="M1007 0q-50 0 -80 -26.5t-30 -65.5q0 -32 10.5 -69t45.5 -73l-34 -45q-43 14 -81.5 40t-67.5 61.5t-46 82t-17 107.5v342h-24q-28 0 -50 -11.5t-37 -32t-23 -47t-8 -55.5v-212q0 -64 -20.5 -117.5t-55.5 -90t-83 -56t-102 -19.5q-129 0 -195.5 86t-66.5 243v74h54v-71
q0 -135 54.5 -204.5t153.5 -69.5q42 0 79.5 15t66 44.5t43.5 72t15 94.5v211q0 42 12.5 79t35.5 65.5t55.5 44t71.5 15.5h80v-392q0 -44 9 -77t23 -58t32 -43t38 -33l5 4q-13 18 -20.5 48.5t-7.5 54.5q0 34 13 61.5t36 45t53.5 26.5t62.5 9v-58zM574 533v33h34v128h33v-57
q0 -4 -0.5 -12.5t-3.5 -15.5l3 -1l6 9q12 17 26.5 26.5t31.5 9.5q21 0 38.5 -14t17.5 -49v-57h-186zM728 586q0 14 -5.5 23.5t-18.5 9.5q-12 0 -19.5 -7t-17.5 -17l-22 -29h83v20z" />
    <glyph glyph-name="uniFBA9_uniFB59_uniFBFD.liga" unicode="&#xfba9;&#xfb59;&#xfbfd;" 
d="M1007 0q-50 0 -80 -26.5t-30 -65.5q0 -32 10.5 -69t45.5 -73l-34 -45q-43 14 -81.5 40t-67.5 61.5t-46 82t-17 107.5v342h-24q-28 0 -50 -11.5t-37 -32t-23 -47t-8 -55.5v-212q0 -64 -20.5 -117.5t-55.5 -90t-83 -56t-102 -19.5q-129 0 -195.5 86t-66.5 243v74h54v-71
q0 -135 54.5 -204.5t153.5 -69.5q42 0 79.5 15t66 44.5t43.5 72t15 94.5v211q0 42 12.5 79t35.5 65.5t55.5 44t71.5 15.5h80v-392q0 -44 9 -77t23 -58t32 -43t38 -33l5 4q-13 18 -20.5 48.5t-7.5 54.5q0 34 13 61.5t36 45t53.5 26.5t62.5 9v-58zM739 -203q0 -41 -40 -41
q-18 0 -28 10.5t-10 30.5q0 18 10 28t28 10q20 0 30 -8.5t10 -29.5zM635 -203q0 -20 -10 -30.5t-28 -10.5q-40 0 -40 41q0 21 10 29.5t30 8.5q18 0 28 -10t10 -28zM688 -303q0 -22 -10 -31t-30 -9t-30 9t-10 31q0 20 11 30.5t29 10.5t29 -10.5t11 -30.5z" />
    <glyph glyph-name="uniFBA9_uniFBFF_uniFBFD.liga" unicode="&#xfba9;&#xfbff;&#xfbfd;" 
d="M1007 0q-50 0 -80 -26.5t-30 -65.5q0 -32 10.5 -69t45.5 -73l-34 -45q-43 14 -81.5 40t-67.5 61.5t-46 82t-17 107.5v342h-24q-28 0 -50 -11.5t-37 -32t-23 -47t-8 -55.5v-212q0 -64 -20.5 -117.5t-55.5 -90t-83 -56t-102 -19.5q-129 0 -195.5 86t-66.5 243v74h54v-71
q0 -135 54.5 -204.5t153.5 -69.5q42 0 79.5 15t66 44.5t43.5 72t15 94.5v211q0 42 12.5 79t35.5 65.5t55.5 44t71.5 15.5h80v-392q0 -44 9 -77t23 -58t32 -43t38 -33l5 4q-13 18 -20.5 48.5t-7.5 54.5q0 34 13 61.5t36 45t53.5 26.5t62.5 9v-58zM560 -202q0 39 39 39
q19 0 28.5 -9.5t9.5 -29.5t-9.5 -29t-28.5 -9t-29 8.5t-10 29.5zM659 -202q0 20 9.5 29.5t28.5 9.5q39 0 39 -39q0 -21 -10 -29.5t-29 -8.5t-28.5 9t-9.5 29z" />
    <glyph glyph-name="uniFE8C_uniFBAF.liga" unicode="&#xfe8c;&#xfbaf;" horiz-adv-x="490" 
d="M368 0v354h-24q-28 0 -50.5 -11.5t-37 -32t-22 -47t-7.5 -55.5v-196q0 -55 -16 -91.5t-48 -57.5v-3h714v-58h-835v58l20 6q54 15 81 49.5t27 96.5v196q0 42 12 79t35 65.5t55 44t73 15.5h79v-354h66v-58h-122zM296 531v74q0 43 26.5 72t68.5 29h36v-37h-36
q-25 0 -42 -18.5t-17 -45.5v-36h95v-38h-131z" />
    <glyph glyph-name="uniFE92_uniFBAF.liga" unicode="&#xfe92;&#xfbaf;" horiz-adv-x="490" 
d="M368 0v354h-24q-28 0 -50.5 -11.5t-37 -32t-22 -47t-7.5 -55.5v-196q0 -55 -16 -91.5t-48 -57.5v-3h714v-58h-835v58l20 6q54 15 81 49.5t27 96.5v196q0 42 12 79t35 65.5t55 44t73 15.5h79v-354h66v-58h-122zM314 -309q0 44 43 44t43 -44q0 -43 -43 -43t-43 43z" />
    <glyph glyph-name="uniFE98_uniFBAF.liga" unicode="&#xfe98;&#xfbaf;" horiz-adv-x="490" 
d="M368 0v354h-24q-28 0 -50.5 -11.5t-37 -32t-22 -47t-7.5 -55.5v-196q0 -55 -16 -91.5t-48 -57.5v-3h714v-58h-835v58l20 6q54 15 81 49.5t27 96.5v196q0 42 12 79t35 65.5t55 44t73 15.5h79v-354h66v-58h-122zM246 615q0 41 41 41q18 0 28.5 -10.5t10.5 -30.5
t-10.5 -29.5t-28.5 -9.5q-20 0 -30.5 9t-10.5 30zM348 615q0 20 10.5 30.5t28.5 10.5q41 0 41 -41q0 -21 -10.5 -30t-30.5 -9q-18 0 -28.5 9.5t-10.5 29.5z" />
    <glyph glyph-name="uniFE9C_uniFBAF.liga" unicode="&#xfe9c;&#xfbaf;" horiz-adv-x="490" 
d="M368 0v354h-24q-28 0 -50.5 -11.5t-37 -32t-22 -47t-7.5 -55.5v-196q0 -55 -16 -91.5t-48 -57.5v-3h714v-58h-835v58l20 6q54 15 81 49.5t27 96.5v196q0 42 12 79t35 65.5t55 44t73 15.5h79v-354h66v-58h-122zM242 572q0 41 40 41q20 0 30 -10.5t10 -30.5q0 -19 -10 -29
t-30 -10t-30 8.5t-10 30.5zM350 572q0 20 10 30.5t30 10.5q40 0 40 -41q0 -22 -10 -30.5t-30 -8.5t-30 10t-10 29zM295 674q0 24 10.5 32.5t30.5 8.5t30.5 -8.5t10.5 -32.5q0 -20 -11.5 -30.5t-29.5 -10.5t-29.5 10.5t-11.5 30.5z" />
    <glyph glyph-name="uniFEE8_uniFBAF.liga" unicode="&#xfee8;&#xfbaf;" horiz-adv-x="490" 
d="M368 0v354h-24q-28 0 -50.5 -11.5t-37 -32t-22 -47t-7.5 -55.5v-196q0 -55 -16 -91.5t-48 -57.5v-3h714v-58h-835v58l20 6q54 15 81 49.5t27 96.5v196q0 42 12 79t35 65.5t55 44t73 15.5h79v-354h66v-58h-122zM336 615q0 44 43 44t43 -44q0 -43 -43 -43t-43 43z" />
    <glyph glyph-name="uniFBFF_uniFBAF.liga" unicode="&#xfbff;&#xfbaf;" horiz-adv-x="490" 
d="M368 0v354h-24q-28 0 -50.5 -11.5t-37 -32t-22 -47t-7.5 -55.5v-196q0 -55 -16 -91.5t-48 -57.5v-3h714v-58h-835v58l20 6q54 15 81 49.5t27 96.5v196q0 42 12 79t35 65.5t55 44t73 15.5h79v-354h66v-58h-122zM253 -309q0 41 41 41q18 0 28.5 -10.5t10.5 -30.5
t-10.5 -29.5t-28.5 -9.5q-20 0 -30.5 9t-10.5 30zM355 -309q0 20 10.5 30.5t28.5 10.5q41 0 41 -41q0 -21 -10.5 -30t-30.5 -9q-18 0 -28.5 9.5t-10.5 29.5z" />
    <glyph glyph-name="uniFB69_uniFBAF.liga" unicode="&#xfb69;&#xfbaf;" horiz-adv-x="490" 
d="M368 0v354h-24q-28 0 -50.5 -11.5t-37 -32t-22 -47t-7.5 -55.5v-196q0 -55 -16 -91.5t-48 -57.5v-3h714v-58h-835v58l20 6q54 15 81 49.5t27 96.5v196q0 42 12 79t35 65.5t55 44t73 15.5h79v-354h66v-58h-122zM236 533v33h34v128h33v-57q0 -4 -0.5 -12.5t-3.5 -15.5l3 -1
l6 9q12 17 26.5 26.5t31.5 9.5q21 0 38.5 -14t17.5 -49v-57h-186zM390 586q0 14 -5.5 23.5t-18.5 9.5q-12 0 -19.5 -7t-17.5 -17l-22 -29h83v20z" />
    <glyph glyph-name="uniFBA8_uniFBAF.liga" unicode="&#xfba8;&#xfbaf;" horiz-adv-x="702" 
d="M580 -319l-25 -33q-10 -11 -21 -16.5t-24 -5.5q-23 0 -36.5 13t-13.5 36q0 8 0.5 15.5t3.5 17.5l25 94h-447v58l20 6q54 15 81 49.5t27 96.5v196q0 42 12 79t35 65.5t55 44t73 15.5h79v-354h66q32 0 49 21.5t17 56.5v276h55v-276q0 -60 -32 -98t-89 -38h-122v354h-24
q-28 0 -50.5 -13t-37 -33.5t-22 -47t-7.5 -52.5v-196q0 -55 -16 -91.5t-48 -57.5v-3h507v-58h-148l-24 -104q-3 -11 -3 -19q0 -7 4 -11.5t11 -4.5q6 0 10 2.5t8 6.5l28 33z" />
    <glyph glyph-name="uniFBA8_uniFBB1.liga" unicode="&#xfba8;&#xfbb1;" horiz-adv-x="702" 
d="M580 -319l-25 -33q-10 -11 -21 -16.5t-24 -5.5q-23 0 -36.5 13t-13.5 36q0 8 0.5 15.5t3.5 17.5l25 94h-447v58l20 6q54 15 81 49.5t27 96.5v196q0 42 12 79t35 65.5t55 44t73 15.5h79v-354h66q32 0 49 21.5t17 56.5v276h55v-276q0 -60 -32 -98t-89 -38h-122v354h-24
q-28 0 -50.5 -13t-37 -33.5t-22 -47t-7.5 -52.5v-196q0 -55 -16 -91.5t-48 -57.5v-3h507v-58h-148l-24 -104q-3 -11 -3 -19q0 -7 4 -11.5t11 -4.5q6 0 10 2.5t8 6.5l28 33zM296 531v74q0 43 26.5 72t68.5 29h36v-37h-36q-25 0 -42 -18.5t-17 -45.5v-36h95v-38h-131z" />
    <glyph glyph-name="uniFBA9_uniFBAF.liga" unicode="&#xfba9;&#xfbaf;" horiz-adv-x="898" 
d="M42 -198v120q0 41 13.5 78.5t37.5 66t59 45t80 16.5h273q40 0 66 28t26 67v80h56v-278q0 -43 8.5 -77t23 -59.5t32.5 -45t39 -34.5l4 4q-13 18 -20.5 48.5t-7.5 55.5q0 36 13.5 62t35.5 43.5t52.5 26.5t64.5 9v-58q-50 0 -81 -26.5t-31 -65.5q0 -32 9.5 -66t47.5 -76
l-33 -45q-42 14 -80 39t-68 62t-47.5 86.5t-17.5 116.5v88h-2q-15 -25 -39.5 -33t-50.5 -8h-273q-32 0 -57.5 -12.5t-42 -32.5t-25.5 -48t-9 -57v-62h450v-58h-506z" />
    <glyph glyph-name="uniFEE0_uniFBAF.liga" unicode="&#xfee0;&#xfbaf;" horiz-adv-x="480" 
d="M480 0q-31 0 -53.5 9t-37.5 24.5t-23 36t-8 43.5v21h-1q-16 -14 -32.5 -18.5t-33.5 -4.5h-59q-32 0 -57.5 -12.5t-42 -33t-25.5 -47.5t-9 -58v-100h811v-58h-867v158q0 41 13.5 78.5t37.5 66t59 45t80 16.5h59q12 0 24 4.5t21.5 13t15.5 20t6 24.5v495h57v-598
q0 -26 18.5 -46.5t46.5 -20.5v-58z" />
    <glyph glyph-name="afii57409" unicode="&#x621;" horiz-adv-x="352" arabic-form="isolated" 
d="M87 0v155q0 45 13 76.5t37.5 51.5t57.5 28.5t71 8.5h54v-54h-55q-60 0 -92.5 -25.5t-32.5 -85.5v-97h180v-58h-233z" />
    <glyph glyph-name="afii57410" unicode="&#x622;" horiz-adv-x="174" arabic-form="isolated" 
d="M86 0v685h56v-685h-56zM199 743h-79q-29 0 -46 4.5t-28 22.5l-46 -30v44l61 35q10 -26 22 -32.5t41 -6.5h75v-37z" />
    <glyph glyph-name="afii57411" unicode="&#x623;" horiz-adv-x="174" arabic-form="isolated" 
d="M86 0v595h56v-595h-56zM47 648v74q0 43 26.5 72t68.5 29h36v-37h-36q-25 0 -42 -18.5t-17 -45.5v-36h95v-38h-131z" />
    <glyph glyph-name="afii57412" unicode="&#x624;" horiz-adv-x="495" arabic-form="isolated" 
d="M464 -17q0 -59 -22.5 -108.5t-63 -85t-97 -55.5t-123.5 -20v52q55 0 100.5 15.5t78.5 43.5t51.5 64t18.5 77v34h-134q-40 0 -75 14.5t-60 39.5t-39.5 59t-14.5 75v48q0 41 14 77.5t39 65t59 45.5t75 17q42 0 77 -17t61.5 -45.5t40.5 -65t14 -77.5v-253zM407 236
q0 30 -10.5 56.5t-28.5 46t-42 32t-53 12.5t-53 -12.5t-41.5 -32t-27.5 -46t-10 -56.5v-48q0 -27 10 -51t27.5 -41.5t41.5 -27.5t53 -10h134v178zM204 532v74q0 43 26.5 72t68.5 29h36v-37h-36q-25 0 -42 -18.5t-17 -45.5v-36h95v-38h-131z" />
    <glyph glyph-name="afii57413" unicode="&#x625;" horiz-adv-x="174" arabic-form="isolated" 
d="M86 0v723h56v-723h-56zM40 -233v74q0 43 26 72t68 29h36v-37h-36q-25 0 -42 -18.5t-17 -45.5v-36h95v-38h-130z" />
    <glyph glyph-name="afii57414" unicode="&#x626;" horiz-adv-x="795" arabic-form="isolated" 
d="M707 0v354h-24q-28 0 -50 -11.5t-37 -32t-23 -47t-8 -55.5v-212q0 -64 -20.5 -117.5t-55.5 -90t-83 -56t-102 -19.5q-129 0 -195.5 86t-66.5 243v74h54v-74q0 -133 54.5 -202t153.5 -69q42 0 79.5 15t66 44.5t43.5 72t15 94.5v211q0 42 12.5 79t35.5 65.5t55.5 44
t71.5 15.5h80v-412h-56zM42 167v74q0 43 26.5 72t68.5 29h36v-37h-36q-25 0 -42 -18.5t-17 -45.5v-36h95v-38h-131z" />
    <glyph glyph-name="afii57415" unicode="&#x627;" horiz-adv-x="174" arabic-form="isolated" 
d="M86 0v723h56v-723h-56z" />
    <glyph glyph-name="afii57416" unicode="&#x628;" horiz-adv-x="694" arabic-form="isolated" 
d="M662 125q0 -25 -9.5 -48t-26 -40t-38.5 -27t-47 -10h-268q-41 0 -76 14.5t-60 40t-39 60t-14 73.5v35q0 48 16.5 86.5t43 64.5t60.5 40.5t70 14.5v-54q-26 0 -50.5 -11t-43 -31.5t-29 -49t-10.5 -60.5v-35q0 -25 9 -48.5t27.5 -42t42.5 -29t53 -10.5h268q28 0 46.5 19.5
t18.5 47.5v287h56v-287zM360 -131q0 44 43 44t43 -44q0 -43 -43 -43t-43 43z" />
    <glyph glyph-name="afii57417" unicode="&#x629;" horiz-adv-x="495" arabic-form="isolated" 
d="M464 190q0 -44 -14.5 -81t-40.5 -64t-60 -43t-75 -16t-75 16t-60 43t-40.5 64t-14.5 81v46q0 42 14.5 79t40.5 65t60 44.5t75 16.5t75 -16.5t60 -44.5t40.5 -65t14.5 -79v-46zM407 236q0 30 -10.5 57t-28.5 47.5t-41.5 32.5t-52.5 12t-52.5 -12t-42 -32.5t-28.5 -47.5
t-10 -57v-46q0 -31 10 -57t28.5 -46t42 -32t52.5 -12t52.5 12t41.5 32t28.5 46t10.5 57v46zM182 582q0 41 41 41q18 0 28.5 -10.5t10.5 -30.5t-10.5 -29.5t-28.5 -9.5q-20 0 -30.5 9t-10.5 30zM284 582q0 20 10.5 30.5t28.5 10.5q41 0 41 -41q0 -21 -10.5 -30t-30.5 -9
q-18 0 -28.5 9.5t-10.5 29.5z" />
    <glyph glyph-name="afii57418" unicode="&#x62a;" horiz-adv-x="694" arabic-form="isolated" 
d="M662 125q0 -25 -9.5 -48t-26 -40t-38.5 -27t-47 -10h-268q-41 0 -76 14.5t-60 40t-39 60t-14 73.5v35q0 48 16.5 86.5t43 64.5t60.5 40.5t70 14.5v-54q-26 0 -50.5 -11t-43 -31.5t-29 -49t-10.5 -60.5v-35q0 -25 9 -48.5t27.5 -42t42.5 -29t53 -10.5h268q28 0 46.5 19.5
t18.5 47.5v287h56v-287zM341 581q0 41 41 41q18 0 28.5 -10.5t10.5 -30.5t-10.5 -29.5t-28.5 -9.5q-20 0 -30.5 9t-10.5 30zM443 581q0 20 10.5 30.5t28.5 10.5q41 0 41 -41q0 -21 -10.5 -30t-30.5 -9q-18 0 -28.5 9.5t-10.5 29.5z" />
    <glyph glyph-name="afii57419" unicode="&#x62b;" horiz-adv-x="694" arabic-form="isolated" 
d="M662 125q0 -25 -9.5 -48t-26 -40t-38.5 -27t-47 -10h-268q-41 0 -76 14.5t-60 40t-39 60t-14 73.5v35q0 48 16.5 86.5t43 64.5t60.5 40.5t70 14.5v-54q-26 0 -50.5 -11t-43 -31.5t-29 -49t-10.5 -60.5v-35q0 -25 9 -48.5t27.5 -42t42.5 -29t53 -10.5h268q28 0 46.5 19.5
t18.5 47.5v287h56v-287zM338 542q0 41 40 41q20 0 30 -10.5t10 -30.5q0 -19 -10 -29t-30 -10t-30 8.5t-10 30.5zM446 542q0 20 10 30.5t30 10.5q40 0 40 -41q0 -22 -10 -30.5t-30 -8.5t-30 10t-10 29zM391 644q0 24 10.5 32.5t30.5 8.5t30.5 -8.5t10.5 -32.5
q0 -20 -11.5 -30.5t-29.5 -10.5t-29.5 10.5t-11.5 30.5z" />
    <glyph glyph-name="afii57420" unicode="&#x62c;" horiz-adv-x="515" arabic-form="isolated" 
d="M462 -9q-26 5 -65.5 7.5t-81.5 2.5q-44 0 -75 -9t-52 -25t-31 -38.5t-10 -45.5q0 -20 7 -38.5t24 -34t48 -28t80 -15.5l17 -3v-50h-17q-56 0 -96 13.5t-66.5 35.5t-39 53t-12.5 67q0 39 16 71.5t45.5 55.5t71.5 35.5t96 12.5q27 0 49 -2t34 -5l3 4q-11 12 -17.5 30.5
t-6.5 61.5v86q0 32 -8 59t-23 47.5t-37.5 31.5t-51.5 11q-43 0 -75.5 -20t-61.5 -54l-38 33q33 41 76.5 69.5t100.5 28.5q42 0 74 -15.5t55 -43t34.5 -65t11.5 -83.5v-83q0 -40 8 -63t22 -33l13 -12zM285 -120q0 42 42 42t42 -42t-42 -42t-42 42z" />
    <glyph glyph-name="afii57421" unicode="&#x62d;" horiz-adv-x="515" arabic-form="isolated" 
d="M462 -9q-26 5 -65.5 7.5t-81.5 2.5q-44 0 -75 -9t-52 -25t-31 -38.5t-10 -45.5q0 -19 7.5 -38.5t25.5 -36.5t50.5 -28.5t82.5 -12.5l119 -3v-50h-119q-56 0 -98 13.5t-69 35.5t-40.5 53t-13.5 67q0 39 16 71.5t45.5 55.5t71.5 35.5t96 12.5q27 0 49 -2t34 -5l3 4
q-11 12 -17.5 30.5t-6.5 61.5v86q0 32 -8 59t-23 47.5t-37.5 31.5t-51.5 11q-43 0 -75.5 -20t-61.5 -54l-38 33q33 41 76.5 69.5t100.5 28.5q42 0 74 -15.5t55 -43t34.5 -65t11.5 -83.5v-83q0 -40 8 -63t22 -33l13 -12z" />
    <glyph glyph-name="afii57422" unicode="&#x62e;" horiz-adv-x="515" arabic-form="isolated" 
d="M462 -9q-26 5 -65.5 7.5t-81.5 2.5q-44 0 -75 -9t-52 -25t-31 -38.5t-10 -45.5q0 -19 7.5 -38.5t25.5 -36.5t50.5 -28.5t82.5 -12.5l119 -3v-50h-119q-56 0 -98 13.5t-69 35.5t-40.5 53t-13.5 67q0 39 16 71.5t45.5 55.5t71.5 35.5t96 12.5q27 0 49 -2t34 -5l3 4
q-11 12 -17.5 30.5t-6.5 61.5v86q0 32 -8 59t-23 47.5t-37.5 31.5t-51.5 11q-43 0 -75.5 -20t-61.5 -54l-38 33q33 41 76.5 69.5t100.5 28.5q42 0 74 -15.5t55 -43t34.5 -65t11.5 -83.5v-83q0 -40 8 -63t22 -33l13 -12zM231 585q0 44 43 44t43 -44q0 -43 -43 -43t-43 43z
" />
    <glyph glyph-name="afii57423" unicode="&#x62f;" horiz-adv-x="479" arabic-form="isolated" 
d="M84 0v58h307v149q0 30 -10.5 57.5t-28 48t-42 32.5t-52.5 12h-145v55h145q41 0 75 -16.5t60 -43.5t40.5 -64.5t14.5 -79.5v-208h-364z" />
    <glyph glyph-name="afii57424" unicode="&#x630;" horiz-adv-x="479" arabic-form="isolated" 
d="M84 0v58h307v149q0 30 -10.5 57.5t-28 48t-42 32.5t-52.5 12h-145v55h145q41 0 75 -16.5t60 -43.5t40.5 -64.5t14.5 -79.5v-208h-364zM143 585q0 44 43 44t43 -44q0 -43 -43 -43t-43 43z" />
    <glyph glyph-name="afii57425" unicode="&#x631;" horiz-adv-x="307" arabic-form="isolated" 
d="M274 -36q0 -55 -18 -101t-52.5 -79t-86 -51.5t-117.5 -18.5v52q54 0 95 15t68 42t41.5 64t14.5 77v317h55v-317z" />
    <glyph glyph-name="afii57426" unicode="&#x632;" horiz-adv-x="307" arabic-form="isolated" 
d="M274 -36q0 -55 -18 -101t-52.5 -79t-86 -51.5t-117.5 -18.5v52q54 0 95 15t68 42t41.5 64t14.5 77v317h55v-317zM203 528q0 44 43 44t43 -44q0 -43 -43 -43t-43 43z" />
    <glyph glyph-name="afii57427" unicode="&#x633;" horiz-adv-x="969" arabic-form="isolated" 
d="M936 136q0 -73 -32 -111.5t-85 -38.5q-30 0 -56.5 19t-36.5 53h-3q-11 -26 -34.5 -41.5t-53.5 -15.5q-20 0 -39.5 8.5t-31.5 30.5h-3q1 -11 2 -25.5t1 -27.5q0 -61 -20 -111.5t-55.5 -87t-83 -56t-101.5 -19.5q-129 0 -195.5 86t-66.5 243v74h54v-74q0 -134 54.5 -202.5
t153.5 -68.5q42 0 79.5 15t66 44.5t43.5 72t15 94.5v357h57v-208q0 -46 19 -67t47 -21q27 0 46.5 20.5t19.5 61.5v214h52v-214q0 -48 21 -72.5t49 -24.5q29 0 47 22.5t18 74.5v287h52v-291z" />
    <glyph glyph-name="afii57428" unicode="&#x634;" horiz-adv-x="969" arabic-form="isolated" 
d="M936 136q0 -73 -32 -111.5t-85 -38.5q-30 0 -56.5 19t-36.5 53h-3q-11 -26 -34.5 -41.5t-53.5 -15.5q-20 0 -39.5 8.5t-31.5 30.5h-3q1 -11 2 -25.5t1 -27.5q0 -61 -20 -111.5t-55.5 -87t-83 -56t-101.5 -19.5q-129 0 -195.5 86t-66.5 243v74h54v-74q0 -134 54.5 -202.5
t153.5 -68.5q42 0 79.5 15t66 44.5t43.5 72t15 94.5v357h57v-208q0 -46 19 -67t47 -21q27 0 46.5 20.5t19.5 61.5v214h52v-214q0 -48 21 -72.5t49 -24.5q29 0 47 22.5t18 74.5v287h52v-291zM633 572q0 41 40 41q20 0 30 -10.5t10 -30.5q0 -19 -10 -29t-30 -10t-30 8.5
t-10 30.5zM741 572q0 20 10 30.5t30 10.5q40 0 40 -41q0 -22 -10 -30.5t-30 -8.5t-30 10t-10 29zM686 674q0 24 10.5 32.5t30.5 8.5t30.5 -8.5t10.5 -32.5q0 -20 -11.5 -30.5t-29.5 -10.5t-29.5 10.5t-11.5 30.5z" />
    <glyph glyph-name="afii57429" unicode="&#x635;" horiz-adv-x="1101" arabic-form="isolated" 
d="M564 0v-17q0 -60 -20 -110t-55.5 -85.5t-83 -55t-101.5 -19.5q-128 0 -195 85.5t-67 243.5v74h54v-73q0 -134 55 -203t153 -69q43 0 80.5 15.5t65 44.5t43 71t15.5 95v406h50l3 -171h3q30 41 61.5 79t67.5 66.5t78.5 45.5t93.5 17q45 0 82.5 -15.5t64.5 -46.5t42 -76.5
t15 -106.5v-195h-505zM1013 190q0 53 -13 90t-34.5 59.5t-49 32.5t-56.5 10q-50 0 -91 -19t-76 -50.5t-66 -71.5t-62 -82v-101h448v132z" />
    <glyph glyph-name="afii57430" unicode="&#x636;" horiz-adv-x="1101" arabic-form="isolated" 
d="M564 0v-17q0 -60 -20 -110t-55.5 -85.5t-83 -55t-101.5 -19.5q-128 0 -195 85.5t-67 243.5v74h54v-73q0 -134 55 -203t153 -69q43 0 80.5 15.5t65 44.5t43 71t15.5 95v406h50l3 -171h3q30 41 61.5 79t67.5 66.5t78.5 45.5t93.5 17q45 0 82.5 -15.5t64.5 -46.5t42 -76.5
t15 -106.5v-195h-505zM1013 190q0 53 -13 90t-34.5 59.5t-49 32.5t-56.5 10q-50 0 -91 -19t-76 -50.5t-66 -71.5t-62 -82v-101h448v132zM708 585q0 44 43 44t43 -44q0 -43 -43 -43t-43 43z" />
    <glyph glyph-name="afii57431" unicode="&#x637;" horiz-adv-x="776" arabic-form="isolated" 
d="M42 0v58h141v665h55v-392q0 -37 -1.5 -63.5t-7.5 -40.5l3 -3q33 44 65.5 83t69.5 68.5t79 47t93 17.5q44 0 81.5 -15.5t64.5 -46.5t42.5 -77t15.5 -107v-194h-701zM686 190q0 53 -13 90t-34.5 59.5t-48.5 32.5t-55 10q-51 0 -92.5 -19t-76.5 -50.5t-66 -71.5t-62 -82
v-101h448v132z" />
    <glyph glyph-name="afii57432" unicode="&#x638;" horiz-adv-x="776" arabic-form="isolated" 
d="M42 0v58h141v665h55v-392q0 -37 -1.5 -63.5t-7.5 -40.5l3 -3q33 44 65.5 83t69.5 68.5t79 47t93 17.5q44 0 81.5 -15.5t64.5 -46.5t42.5 -77t15.5 -107v-194h-701zM686 190q0 53 -13 90t-34.5 59.5t-48.5 32.5t-55 10q-51 0 -92.5 -19t-76.5 -50.5t-66 -71.5t-62 -82
v-101h448v132zM386 585q0 44 43 44t43 -44q0 -43 -43 -43t-43 43z" />
    <glyph glyph-name="afii57433" unicode="&#x639;" horiz-adv-x="503" arabic-form="isolated" 
d="M307 0q-42 0 -74 -9t-52 -25t-30.5 -38t-10.5 -45q0 -19 6.5 -38.5t25 -36t51 -27.5t83.5 -13l165 -4v-50h-165q-57 0 -99 13.5t-69 35.5t-40.5 53t-13.5 67q0 51 30.5 88.5t69.5 53.5v3q-13 21 -29.5 47t-31 56t-24 63t-9.5 65q0 41 15 75.5t40 58t60 36.5t74 13
q41 0 74 -15t57.5 -40t39 -57t15.5 -67h-51q-3 23 -13 46t-27 40.5t-41.5 28t-53.5 10.5t-53.5 -9t-42 -25.5t-27.5 -40t-10 -54.5q0 -27 8 -55t20.5 -53.5t29 -51t32.5 -48.5q22 4 43 5.5t44 1.5h122v-58h-138z" />
    <glyph glyph-name="afii57434" unicode="&#x63a;" horiz-adv-x="503" arabic-form="isolated" 
d="M307 0q-42 0 -74 -9t-52 -25t-30.5 -38t-10.5 -45q0 -19 6.5 -38.5t25 -36t51 -27.5t83.5 -13l165 -4v-50h-165q-57 0 -99 13.5t-69 35.5t-40.5 53t-13.5 67q0 51 30.5 88.5t69.5 53.5v3q-13 21 -29.5 47t-31 56t-24 63t-9.5 65q0 41 15 75.5t40 58t60 36.5t74 13
q41 0 74 -15t57.5 -40t39 -57t15.5 -67h-51q-3 23 -13 46t-27 40.5t-41.5 28t-53.5 10.5t-53.5 -9t-42 -25.5t-27.5 -40t-10 -54.5q0 -27 8 -55t20.5 -53.5t29 -51t32.5 -48.5q22 4 43 5.5t44 1.5h122v-58h-138zM226 587q0 44 43 44t43 -44q0 -43 -43 -43t-43 43z" />
    <glyph glyph-name="afii57441" unicode="&#x641;" horiz-adv-x="907" arabic-form="isolated" 
d="M273 0q-44 0 -78 15t-59 42t-38.5 64.5t-13.5 82.5v148h54v-148q0 -30 10 -56.5t28 -46t42 -31.5t55 -12h428q27 0 50 -2t40 -7l2 2q-46 20 -99 42t-96.5 52.5t-73 73t-29.5 101.5q0 36 14.5 68t40.5 56.5t60.5 39t75.5 14.5t75 -14.5t60 -41t39.5 -61.5t13.5 -73v-308
h-601zM819 311q0 25 -10.5 48.5t-27.5 42t-41.5 29.5t-53.5 11t-53.5 -10.5t-42 -27t-28 -38t-10.5 -45.5q0 -50 27 -85.5t67 -62.5t87 -46.5t86 -35.5v220zM627 666q0 44 43 44t43 -44q0 -43 -43 -43t-43 43z" />
    <glyph glyph-name="afii57442" unicode="&#x642;" horiz-adv-x="652" arabic-form="isolated" 
d="M620 -17q0 -59 -21.5 -108.5t-60.5 -84.5t-92.5 -54.5t-114.5 -19.5q-70 0 -124 21.5t-91 63t-55.5 102.5t-18.5 139v74h54v-73q0 -67 16 -118t45.5 -86t72.5 -53.5t99 -18.5q49 0 92 16t74.5 43.5t50 63.5t18.5 76v34h-135q-39 0 -74 14.5t-60 39.5t-39.5 59t-14.5 75
v48q0 41 14 77.5t39.5 65t59.5 45.5t74 17q42 0 77.5 -17t61.5 -45.5t39.5 -65t13.5 -79.5v-251zM564 236q0 30 -10 56.5t-28.5 46t-43 32t-53.5 12.5t-52.5 -12.5t-40.5 -32t-27.5 -46t-10.5 -56.5v-48q0 -27 10.5 -51t28 -41.5t42 -27.5t53.5 -10h132v178zM337 586
q0 41 41 41q18 0 28.5 -10.5t10.5 -30.5t-10.5 -29.5t-28.5 -9.5q-20 0 -30.5 9t-10.5 30zM439 586q0 20 10.5 30.5t28.5 10.5q41 0 41 -41q0 -21 -10.5 -30t-30.5 -9q-18 0 -28.5 9.5t-10.5 29.5z" />
    <glyph glyph-name="afii57443" unicode="&#x643;" horiz-adv-x="859" arabic-form="isolated" 
d="M273 0q-44 0 -78 15t-59 42t-38.5 64.5t-13.5 82.5v95h54v-95q0 -30 10 -56.5t28 -46t42 -31.5t55 -12h499v665h56v-723h-555zM386 257v93q0 28 8 50.5t23.5 39.5t38.5 27t52 10h32v-41h-32q-37 0 -58 -24.5t-21 -59.5v-49h111v-46h-154z" />
    <glyph glyph-name="afii57444" unicode="&#x644;" horiz-adv-x="597" arabic-form="isolated" 
d="M565 17q0 -72 -20.5 -129t-56 -96.5t-83 -59t-101.5 -19.5q-129 0 -195.5 86t-66.5 243v74h54v-73q0 -134 54.5 -203t153.5 -69q42 0 79.5 15t66 46.5t43.5 78.5t15 106v706h57v-706z" />
    <glyph glyph-name="afii57446" unicode="&#x646;" horiz-adv-x="597" arabic-form="isolated" 
d="M565 17q0 -72 -20.5 -129t-56 -96.5t-83 -59t-101.5 -19.5q-129 0 -195.5 86t-66.5 243v74h54v-73q0 -134 54.5 -203t153.5 -69q42 0 79.5 15t66 46.5t43.5 78.5t15 106v249h57v-249zM263 417q0 44 43 44t43 -44q0 -43 -43 -43t-43 43z" />
    <glyph glyph-name="afii57470.medi" unicode="&#x647;" horiz-adv-x="674" arabic-form="medial" 
d="M632 -20q-59 6 -124.5 18.5t-119.5 27.5q-9 -14 -21.5 -20t-41.5 -6h-325q-7 0 -14 3.5t-13 9t-10 13t-4 14.5q0 9 10.5 13.5t30.5 4.5h233q32 0 53 -0.5t34 -4.5l1 2q-39 15 -83 34t-82.5 45.5t-63.5 62.5t-25 87q0 28 10 52.5t27 43.5t40 32t50 16v3h-119v52h328
q51 0 94.5 -19.5t76 -54t50 -80t17.5 -96.5v-175h33v-58h-33v-11zM586 233q0 40 -14.5 75.5t-39 62.5t-58 43.5t-71.5 16.5h-137v-3q29 -3 54 -17.5t43.5 -36.5t29 -52t10.5 -64v-180q39 -13 90.5 -24.5t92.5 -13.5v193zM349 258q0 26 -8.5 51.5t-24.5 44.5t-38.5 30
t-48.5 11q-22 0 -42 -9t-34.5 -23.5t-23 -35t-8.5 -43.5q0 -42 23 -72t57.5 -52.5t74 -39t73.5 -29.5v167z" />
    <glyph glyph-name="afii57448" unicode="&#x648;" horiz-adv-x="495" arabic-form="isolated" 
d="M464 -17q0 -59 -22.5 -108.5t-63 -85t-97 -55.5t-123.5 -20v52q55 0 100.5 15.5t78.5 43.5t51.5 64t18.5 77v34h-134q-40 0 -75 14.5t-60 39.5t-39.5 59t-14.5 75v48q0 41 14 77.5t39 65t59 45.5t75 17q42 0 77 -17t61.5 -45.5t40.5 -65t14 -77.5v-253zM407 236
q0 30 -10.5 56.5t-28.5 46t-42 32t-53 12.5t-53 -12.5t-41.5 -32t-27.5 -46t-10 -56.5v-48q0 -27 10 -51t27.5 -41.5t41.5 -27.5t53 -10h134v178z" />
    <glyph glyph-name="afii57449" unicode="&#x649;" horiz-adv-x="795" arabic-form="isolated" 
d="M707 0v354h-24q-28 0 -50 -11.5t-37 -32t-23 -47t-8 -55.5v-212q0 -64 -20.5 -117.5t-55.5 -90t-83 -56t-102 -19.5q-129 0 -195.5 86t-66.5 243v74h54v-74q0 -133 54.5 -202t153.5 -69q42 0 79.5 15t66 44.5t43.5 72t15 94.5v211q0 42 12.5 79t35.5 65.5t55.5 44
t71.5 15.5h80v-412h-56z" />
    <glyph glyph-name="afii57450" unicode="&#x64a;" horiz-adv-x="795" arabic-form="isolated" 
d="M707 0v354h-24q-28 0 -50 -11.5t-37 -32t-23 -47t-8 -55.5v-212q0 -64 -20.5 -117.5t-55.5 -90t-83 -56t-102 -19.5q-129 0 -195.5 86t-66.5 243v74h54v-74q0 -133 54.5 -202t153.5 -69q42 0 79.5 15t66 44.5t43.5 72t15 94.5v211q0 42 12.5 79t35.5 65.5t55.5 44
t71.5 15.5h80v-412h-56zM488 -280q0 41 41 41q18 0 28.5 -10.5t10.5 -30.5t-10.5 -29.5t-28.5 -9.5q-20 0 -30.5 9t-10.5 30zM590 -280q0 20 10.5 30.5t28.5 10.5q41 0 41 -41q0 -21 -10.5 -30t-30.5 -9q-18 0 -28.5 9.5t-10.5 29.5z" />
    <glyph glyph-name="uni066E.init" unicode="&#x66e;" horiz-adv-x="154" 
d="M122 136q0 -60 -32 -98t-90 -38q-7 0 -14 3.5t-13 9t-10 13t-4 14.5q0 9 10.5 13.5t30.5 4.5q33 0 49.5 21.5t16.5 56.5v276h56v-276z" />
    <glyph glyph-name="uni066E.medi" unicode="&#x66e;" horiz-adv-x="246" 
d="M246 0q-48 0 -77 12t-44 47h-3q-9 -17 -22 -29t-28 -18.5t-33.5 -9t-38.5 -2.5q-12 0 -26.5 12t-14.5 28q0 9 10.5 13.5t30.5 4.5q45 0 69.5 17t24.5 61v189h56v-189q0 -45 24 -61.5t72 -16.5v-58z" />
    <glyph glyph-name="uni066E.fina" unicode="&#x66e;" horiz-adv-x="728" 
d="M662 146q0 -39 18.5 -63.5t47.5 -24.5v-58q-14 0 -29.5 4.5t-26.5 12.5t-20 20t-13 26h-3q-12 -29 -33.5 -46t-63.5 -17h-266q-41 0 -76 14.5t-60 40t-39 60t-14 73.5v35q0 48 16.5 86.5t43 64.5t60.5 40.5t70 14.5v-54q-26 0 -50.5 -11t-43 -31.5t-29 -49t-10.5 -60.5
v-35q0 -25 9 -48.5t27.5 -42t42.5 -29t53 -10.5h266q33 0 50 22.5t17 52.5v279h56v-266z" />
    <glyph glyph-name="uni066F.init" unicode="&#x66f;" horiz-adv-x="478" 
d="M0 0q-7 0 -14 3.5t-13 9t-10 13t-4 14.5q0 9 10.5 13.5t30.5 4.5h271q29 0 51.5 -2t39.5 -7l1 2q-46 20 -98 42t-96 52.5t-73 73t-29 101.5q0 36 14.5 68t39.5 56.5t60.5 39t76.5 14.5t74.5 -14.5t59 -41t40 -61.5t14.5 -73v-308h-446zM390 311q0 25 -10 48.5t-27.5 42
t-41.5 29.5t-53 11t-54 -10.5t-42.5 -27t-27.5 -38t-10 -45.5q0 -50 26 -85.5t66.5 -62.5t87 -46.5t86.5 -35.5v220z" />
    <glyph glyph-name="uni066F.medi" unicode="&#x66f;" horiz-adv-x="512" 
d="M512 0q-16 0 -38 6t-45 18q-8 -15 -21 -19.5t-46 -4.5h-362q-7 0 -14 3.5t-13 9t-10 13t-4 14.5q0 9 10.5 13.5t30.5 4.5h262q34 0 58 -1.5t38 -5.5l2 3q-45 17 -96 39t-95 52.5t-73 73t-29 101.5q0 36 14.5 68t39.5 56.5t60.5 39t76.5 14.5t74.5 -14.5t59 -41t40 -61.5
t14.5 -73v-230q15 -8 33.5 -14t32.5 -6v-58zM390 311q0 25 -10 49.5t-27.5 42t-41.5 28.5t-53 11t-53.5 -10.5t-42.5 -27t-28 -38t-10 -45.5q0 -50 26 -85.5t66.5 -62.5t87 -46t86.5 -33v217z" />
    <glyph glyph-name="uni066F.fina" unicode="&#x66f;" horiz-adv-x="685" 
d="M620 58h65v-58h-65v-21q0 -58 -21.5 -106.5t-60.5 -83t-92.5 -54t-114.5 -19.5q-70 0 -124 21.5t-91 63t-55.5 102.5t-18.5 139v74h54v-73q0 -67 16 -118t45.5 -86t72.5 -53.5t99 -18.5q49 0 92 16t74.5 43.5t50 63.5t18.5 76v34h-135q-39 0 -74 14.5t-60 39.5t-39.5 59
t-14.5 75v48q0 41 14 77.5t39.5 65t59.5 45.5t74 17q42 0 77.5 -17t61.5 -45.5t39.5 -65t13.5 -79.5v-176zM564 236q0 30 -10 56.5t-28.5 46t-43 32t-53.5 12.5t-52.5 -12.5t-40.5 -32t-27.5 -46t-10.5 -56.5v-48q0 -27 10.5 -51t28 -41.5t42 -27.5t53.5 -10h132v178z" />
    <glyph glyph-name="uni0671" unicode="&#x671;" horiz-adv-x="174" arabic-form="isolated" 
d="M86 0v595h56v-595h-56zM65 677v71h29v-12q0 -8 -3 -18l1 -2l6 10q12 19 25 26.5t27 7.5q25 0 39 -14.5t14 -48.5v-49h-145q-17 0 -23 2t-14 12l-37 -19v33l47 26h2q3 -13 10 -19t17 -6h5zM171 693q0 12 -3 25t-16 13q-9 0 -16.5 -4t-18.5 -18l-23 -32h77v16z" />
    <glyph glyph-name="afii57511" unicode="&#x679;" horiz-adv-x="694" arabic-form="isolated" 
d="M662 125q0 -25 -9.5 -48t-26 -40t-38.5 -27t-47 -10h-268q-41 0 -76 14.5t-60 40t-39 60t-14 73.5v35q0 48 16.5 86.5t43 64.5t60.5 40.5t70 14.5v-54q-26 0 -50.5 -11t-43 -31.5t-29 -49t-10.5 -60.5v-35q0 -25 9 -48.5t27.5 -42t42.5 -29t53 -10.5h268q28 0 46.5 19.5
t18.5 47.5v287h56v-287zM335 502v33h34v128h33v-57q0 -4 -0.5 -12.5t-3.5 -15.5l3 -1l6 9q12 17 26.5 26.5t31.5 9.5q21 0 38.5 -14t17.5 -49v-57h-186zM489 555q0 14 -5.5 23.5t-18.5 9.5q-12 0 -19.5 -7t-17.5 -17l-22 -29h83v20z" />
    <glyph glyph-name="afii57506" unicode="&#x67e;" horiz-adv-x="694" arabic-form="isolated" 
d="M662 125q0 -25 -9.5 -48t-26 -40t-38.5 -27t-47 -10h-268q-41 0 -76 14.5t-60 40t-39 60t-14 73.5v35q0 48 16.5 86.5t43 64.5t60.5 40.5t70 14.5v-54q-26 0 -50.5 -11t-43 -31.5t-29 -49t-10.5 -60.5v-35q0 -25 9 -48.5t27.5 -42t42.5 -29t53 -10.5h268q28 0 46.5 19.5
t18.5 47.5v287h56v-287zM498 -109q0 -41 -40 -41q-20 0 -30 10.5t-10 30.5q0 19 10 29t30 10t30 -9t10 -30zM390 -109q0 -20 -10 -30.5t-30 -10.5q-40 0 -40 41q0 21 10 30t30 9t30 -10t10 -29zM445 -211q0 -24 -10.5 -32.5t-30.5 -8.5t-30.5 8.5t-10.5 32.5q0 20 11.5 30.5
t29.5 10.5t29.5 -10.5t11.5 -30.5z" />
    <glyph glyph-name="afii57507" unicode="&#x686;" horiz-adv-x="515" arabic-form="isolated" 
d="M462 -9q-26 5 -65.5 7.5t-81.5 2.5q-44 0 -75 -9t-52 -25t-31 -38.5t-10 -45.5q0 -20 7 -38.5t24 -34t48 -28t80 -15.5l17 -3v-50h-17q-56 0 -96 13.5t-66.5 35.5t-39 53t-12.5 67q0 39 16 71.5t45.5 55.5t71.5 35.5t96 12.5q27 0 49 -2t34 -5l3 4q-11 12 -17.5 30.5
t-6.5 61.5v86q0 32 -8 59t-23 47.5t-37.5 31.5t-51.5 11q-43 0 -75.5 -20t-61.5 -54l-38 33q33 41 76.5 69.5t100.5 28.5q42 0 74 -15.5t55 -43t34.5 -65t11.5 -83.5v-83q0 -40 8 -63t22 -33l13 -12zM493 -90q0 -41 -40 -41q-18 0 -28 10.5t-10 30.5q0 18 10 28t28 10
q20 0 30 -8.5t10 -29.5zM389 -90q0 -20 -10 -30.5t-28 -10.5q-40 0 -40 41q0 21 10 29.5t30 8.5q18 0 28 -10t10 -28zM442 -190q0 -22 -10 -31t-30 -9t-30 9t-10 31q0 20 11 30.5t29 10.5t29 -10.5t11 -30.5z" />
    <glyph glyph-name="afii57512" unicode="&#x688;" horiz-adv-x="479" arabic-form="isolated" 
d="M84 0v58h307v149q0 30 -10.5 57.5t-28 48t-42 32.5t-52.5 12h-145v55h145q41 0 75 -16.5t60 -43.5t40.5 -64.5t14.5 -79.5v-208h-364zM113 536v33h34v128h33v-57q0 -4 -0.5 -12.5t-3.5 -15.5l3 -1l6 9q12 17 26.5 26.5t31.5 9.5q21 0 38.5 -14t17.5 -49v-57h-186z
M267 589q0 14 -5.5 23.5t-18.5 9.5q-12 0 -19.5 -7t-17.5 -17l-22 -29h83v20z" />
    <glyph glyph-name="afii57513" unicode="&#x691;" horiz-adv-x="307" arabic-form="isolated" 
d="M274 -36q0 -55 -18 -101t-52.5 -79t-86 -51.5t-117.5 -18.5v52q54 0 95 15t68 42t41.5 64t14.5 77v317h55v-317zM116 477v33h34v128h33v-57q0 -4 -0.5 -12.5t-3.5 -15.5l3 -1l6 9q12 17 26.5 26.5t31.5 9.5q21 0 38.5 -14t17.5 -49v-57h-186zM270 530q0 14 -5.5 23.5
t-18.5 9.5q-12 0 -19.5 -7t-17.5 -17l-22 -29h83v20z" />
    <glyph glyph-name="afii57508" unicode="&#x698;" horiz-adv-x="307" arabic-form="isolated" 
d="M274 -36q0 -55 -18 -101t-52.5 -79t-86 -51.5t-117.5 -18.5v52q54 0 95 15t68 42t41.5 64t14.5 77v317h55v-317zM117 516q0 41 40 41q20 0 30 -10.5t10 -30.5q0 -19 -10 -29t-30 -10t-30 8.5t-10 30.5zM225 516q0 20 10 30.5t30 10.5q40 0 40 -41q0 -22 -10 -30.5
t-30 -8.5t-30 10t-10 29zM170 618q0 24 10.5 32.5t30.5 8.5t30.5 -8.5t10.5 -32.5q0 -20 -11.5 -30.5t-29.5 -10.5t-29.5 10.5t-11.5 30.5z" />
    <glyph glyph-name="uni069C.init" unicode="&#x69c;" horiz-adv-x="587" 
d="M556 136q0 -74 -33 -112t-86 -38q-14 0 -28.5 5t-27 14t-22.5 23t-15 31h-3q-10 -27 -35 -43t-56 -16q-27 0 -53 13t-39 49h-3q-8 -19 -19 -30.5t-25.5 -19t-30 -10t-33.5 -2.5h-47q-7 0 -14 3.5t-13 9t-10 13t-4 14.5q0 9 10.5 13.5t30.5 4.5h47q43 0 62 24.5t19 63.5
v208h55v-216q0 -41 19 -60.5t47 -19.5t47 20.5t19 61.5v214h54v-214q0 -48 20.5 -72.5t47.5 -24.5q29 0 47 22.5t18 74.5v287h54v-291zM243 572q0 41 40 41q20 0 30 -10.5t10 -30.5q0 -19 -10 -29t-30 -10t-30 8.5t-10 30.5zM351 572q0 20 10 30.5t30 10.5q40 0 40 -41
q0 -22 -10 -30.5t-30 -8.5t-30 10t-10 29zM296 674q0 24 10.5 32.5t30.5 8.5t30.5 -8.5t10.5 -32.5q0 -20 -11.5 -30.5t-29.5 -10.5t-29.5 10.5t-11.5 30.5zM431 -133q0 -41 -40 -41q-20 0 -30 10.5t-10 30.5q0 19 10 29t30 10t30 -9t10 -30zM323 -133q0 -20 -10 -30.5
t-30 -10.5q-40 0 -40 41q0 21 10 30t30 9t30 -10t10 -29zM378 -235q0 -24 -10.5 -32.5t-30.5 -8.5t-30.5 8.5t-10.5 32.5q0 20 11.5 30.5t29.5 10.5t29.5 -10.5t11.5 -30.5z" />
    <glyph glyph-name="uni069C.medi" unicode="&#x69c;" horiz-adv-x="620" 
d="M556 134q0 -30 17.5 -53t46.5 -23v-58q-30 0 -53 17t-35 45h-3q-5 -19 -13.5 -33.5t-19.5 -23.5t-27 -14t-34 -5q-15 0 -29 5t-26.5 14t-21.5 23t-14 31h-3q-5 -13 -14.5 -24t-21 -19t-26 -12t-30.5 -4q-28 0 -53 13t-38 49h-3q-8 -19 -19 -30.5t-25.5 -19t-29.5 -10
t-31 -2.5h-50q-7 0 -14 3.5t-13 9t-10 13t-4 14.5q0 9 10.5 13.5t30.5 4.5h47q43 0 62 25t19 63v208h55v-216q0 -41 19 -60.5t47 -19.5t47 20.5t19 61.5v214h54v-214q0 -49 20.5 -73t47.5 -24q29 0 47 22.5t18 74.5v287h54v-293zM243 572q0 41 40 41q20 0 30 -10.5t10 -30.5
q0 -19 -10 -29t-30 -10t-30 8.5t-10 30.5zM351 572q0 20 10 30.5t30 10.5q40 0 40 -41q0 -22 -10 -30.5t-30 -8.5t-30 10t-10 29zM296 674q0 24 10.5 32.5t30.5 8.5t30.5 -8.5t10.5 -32.5q0 -20 -11.5 -30.5t-29.5 -10.5t-29.5 10.5t-11.5 30.5zM431 -133q0 -41 -40 -41
q-20 0 -30 10.5t-10 30.5q0 19 10 29t30 10t30 -9t10 -30zM323 -133q0 -20 -10 -30.5t-30 -10.5q-40 0 -40 41q0 21 10 30t30 9t30 -10t10 -29zM378 -235q0 -24 -10.5 -32.5t-30.5 -8.5t-30.5 8.5t-10.5 32.5q0 20 11.5 30.5t29.5 10.5t29.5 -10.5t11.5 -30.5z" />
    <glyph glyph-name="uni069C.fina" unicode="&#x69c;" horiz-adv-x="1002" 
d="M1002 0q-14 0 -28 4t-25 12t-20.5 19t-14.5 26h-3q-6 -19 -15.5 -33t-21 -23t-27 -14t-32.5 -5q-29 0 -54 19t-35 53h-3q-11 -26 -34.5 -41.5t-53.5 -15.5q-20 0 -39.5 8.5t-31.5 30.5h-3q1 -11 2 -25.5t1 -27.5q0 -61 -20 -111.5t-55.5 -87t-83 -56t-101.5 -19.5
q-129 0 -195.5 86t-66.5 244v73h54v-73q0 -134 54.5 -203t153.5 -69q42 0 79.5 15t66 44.5t43.5 72t15 94.5v357h57v-208q0 -46 19 -67t47 -21q27 0 46.5 20.5t19.5 61.5v214h52v-214q0 -48 21 -72.5t49 -24.5q29 0 47 24.5t18 72.5v287h52v-289q0 -37 18.5 -58.5
t47.5 -21.5v-58zM630 572q0 41 40 41q20 0 30 -10.5t10 -30.5q0 -19 -10 -29t-30 -10t-30 8.5t-10 30.5zM738 572q0 20 10 30.5t30 10.5q40 0 40 -41q0 -22 -10 -30.5t-30 -8.5t-30 10t-10 29zM683 674q0 24 10.5 32.5t30.5 8.5t30.5 -8.5t10.5 -32.5q0 -20 -11.5 -30.5
t-29.5 -10.5t-29.5 10.5t-11.5 30.5zM820 -133q0 -41 -40 -41q-20 0 -30 10.5t-10 30.5q0 19 10 29t30 10t30 -9t10 -30zM712 -133q0 -20 -10 -30.5t-30 -10.5q-40 0 -40 41q0 21 10 30t30 9t30 -10t10 -29zM767 -235q0 -24 -10.5 -32.5t-30.5 -8.5t-30.5 8.5t-10.5 32.5
q0 20 11.5 30.5t29.5 10.5t29.5 -10.5t11.5 -30.5z" />
    <glyph glyph-name="uni06A1.init" unicode="&#x6a1;" horiz-adv-x="478" 
d="M0 0q-7 0 -14 3.5t-13 9t-10 13t-4 14.5q0 9 10.5 13.5t30.5 4.5h271q29 0 51.5 -2t39.5 -7l1 2q-46 20 -98 42t-96 52.5t-73 73t-29 101.5q0 36 14.5 68t39.5 56.5t60.5 39t76.5 14.5t74.5 -14.5t59 -41t40 -61.5t14.5 -73v-308h-446zM390 311q0 25 -10 48.5t-27.5 42
t-41.5 29.5t-53 11t-54 -10.5t-42.5 -27t-27.5 -38t-10 -45.5q0 -50 26 -85.5t66.5 -62.5t87 -46.5t86.5 -35.5v220z" />
    <glyph glyph-name="uni06A1.medi" unicode="&#x6a1;" horiz-adv-x="512" 
d="M512 0q-16 0 -38 6t-45 18q-8 -15 -21 -19.5t-46 -4.5h-362q-7 0 -14 3.5t-13 9t-10 13t-4 14.5q0 9 10.5 13.5t30.5 4.5h262q34 0 58 -1.5t38 -5.5l2 3q-45 17 -96 39t-95 52.5t-73 73t-29 101.5q0 36 14.5 68t39.5 56.5t60.5 39t76.5 14.5t74.5 -14.5t59 -41t40 -61.5
t14.5 -73v-230q15 -8 33.5 -14t32.5 -6v-58zM390 311q0 25 -10 49.5t-27.5 42t-41.5 28.5t-53 11t-53.5 -10.5t-42.5 -27t-28 -38t-10 -45.5q0 -50 26 -85.5t66.5 -62.5t87 -46t86.5 -33v217z" />
    <glyph glyph-name="uni06A1.fina" unicode="&#x6a1;" horiz-adv-x="940" 
d="M940 0q-14 0 -37 6t-44 18q-8 -15 -21.5 -19.5t-47.5 -4.5h-517q-44 0 -78 15t-59 42t-38.5 64.5t-13.5 82.5v148h54v-148q0 -30 10 -56.5t28 -46t42 -31.5t55 -12h417q36 0 59.5 -1.5t36.5 -5.5l2 3q-45 17 -96 39t-94.5 52.5t-73 73t-29.5 101.5q0 36 14.5 68
t40.5 56.5t60.5 39t75.5 14.5t75 -14.5t60 -41t39.5 -61.5t13.5 -73v-230q15 -8 34 -14t32 -6v-58zM819 311q0 25 -10.5 49.5t-27.5 42t-41.5 28.5t-53.5 11t-53.5 -10.5t-42 -27t-28 -38t-10.5 -45.5q0 -50 27 -85.5t67 -62.5t87 -46t86 -33v217z" />
    <glyph glyph-name="uni06A2.init" unicode="&#x6a2;" horiz-adv-x="478" 
d="M0 0q-7 0 -14 3.5t-13 9t-10 13t-4 14.5q0 9 10.5 13.5t30.5 4.5h271q29 0 51.5 -2t39.5 -7l1 2q-46 20 -98 42t-96 52.5t-73 73t-29 101.5q0 36 14.5 68t39.5 56.5t60.5 39t76.5 14.5t74.5 -14.5t59 -41t40 -61.5t14.5 -73v-308h-446zM390 311q0 25 -10 48.5t-27.5 42
t-41.5 29.5t-53 11t-54 -10.5t-42.5 -27t-27.5 -38t-10 -45.5q0 -50 26 -85.5t66.5 -62.5t87 -46.5t86.5 -35.5v220zM214 -131q0 44 43 44t43 -44q0 -43 -43 -43t-43 43z" />
    <glyph glyph-name="uni06A2.medi" unicode="&#x6a2;" horiz-adv-x="512" 
d="M512 0q-16 0 -38 6t-45 18q-8 -15 -21 -19.5t-46 -4.5h-362q-7 0 -14 3.5t-13 9t-10 13t-4 14.5q0 9 10.5 13.5t30.5 4.5h262q34 0 58 -1.5t38 -5.5l2 3q-45 17 -96 39t-95 52.5t-73 73t-29 101.5q0 36 14.5 68t39.5 56.5t60.5 39t76.5 14.5t74.5 -14.5t59 -41t40 -61.5
t14.5 -73v-230q15 -8 33.5 -14t32.5 -6v-58zM390 311q0 25 -10 49.5t-27.5 42t-41.5 28.5t-53 11t-53.5 -10.5t-42.5 -27t-28 -38t-10 -45.5q0 -50 26 -85.5t66.5 -62.5t87 -46t86.5 -33v217zM214 -131q0 44 43 44t43 -44q0 -43 -43 -43t-43 43z" />
    <glyph glyph-name="uni06A2.fina" unicode="&#x6a2;" horiz-adv-x="940" 
d="M940 0q-14 0 -37 6t-44 18q-8 -15 -21.5 -19.5t-47.5 -4.5h-517q-44 0 -78 15t-59 42t-38.5 64.5t-13.5 82.5v148h54v-148q0 -30 10 -56.5t28 -46t42 -31.5t55 -12h417q36 0 59.5 -1.5t36.5 -5.5l2 3q-45 17 -96 39t-94.5 52.5t-73 73t-29.5 101.5q0 36 14.5 68
t40.5 56.5t60.5 39t75.5 14.5t75 -14.5t60 -41t39.5 -61.5t13.5 -73v-230q15 -8 34 -14t32 -6v-58zM819 311q0 25 -10.5 49.5t-27.5 42t-41.5 28.5t-53.5 11t-53.5 -10.5t-42 -27t-28 -38t-10.5 -45.5q0 -50 27 -85.5t67 -62.5t87 -46t86 -33v217zM640 -131q0 44 43 44
t43 -44q0 -43 -43 -43t-43 43z" />
    <glyph glyph-name="afii57505" unicode="&#x6a4;" horiz-adv-x="907" arabic-form="isolated" 
d="M273 0q-44 0 -78 15t-59 42t-38.5 64.5t-13.5 82.5v148h54v-148q0 -30 10 -56.5t28 -46t42 -31.5t55 -12h428q27 0 50 -2t40 -7l2 2q-46 20 -99 42t-96.5 52.5t-73 73t-29.5 101.5q0 36 14.5 68t40.5 56.5t60.5 39t75.5 14.5t75 -14.5t60 -41t39.5 -61.5t13.5 -73v-308
h-601zM819 311q0 25 -10.5 48.5t-27.5 42t-41.5 29.5t-53.5 11t-53.5 -10.5t-42 -27t-28 -38t-10.5 -45.5q0 -50 27 -85.5t67 -62.5t87 -46.5t86 -35.5v220zM578 609q0 41 40 41q20 0 30 -10.5t10 -30.5q0 -19 -10 -29t-30 -10t-30 8.5t-10 30.5zM686 609q0 20 10 30.5
t30 10.5q40 0 40 -41q0 -22 -10 -30.5t-30 -8.5t-30 10t-10 29zM631 711q0 24 10.5 32.5t30.5 8.5t30.5 -8.5t10.5 -32.5q0 -20 -11.5 -30.5t-29.5 -10.5t-29.5 10.5t-11.5 30.5z" />
    <glyph glyph-name="uni06A5.init" unicode="&#x6a5;" horiz-adv-x="478" 
d="M0 0q-7 0 -14 3.5t-13 9t-10 13t-4 14.5q0 9 10.5 13.5t30.5 4.5h271q29 0 51.5 -2t39.5 -7l1 2q-46 20 -98 42t-96 52.5t-73 73t-29 101.5q0 36 14.5 68t39.5 56.5t60.5 39t76.5 14.5t74.5 -14.5t59 -41t40 -61.5t14.5 -73v-308h-446zM390 311q0 25 -10 48.5t-27.5 42
t-41.5 29.5t-53 11t-54 -10.5t-42.5 -27t-27.5 -38t-10 -45.5q0 -50 26 -85.5t66.5 -62.5t87 -46.5t86.5 -35.5v220zM351 -116q0 -41 -40 -41q-20 0 -30 10.5t-10 30.5q0 19 10 29t30 10t30 -9t10 -30zM243 -116q0 -20 -10 -30.5t-30 -10.5q-40 0 -40 41q0 21 10 30t30 9
t30 -10t10 -29zM298 -218q0 -24 -10.5 -32.5t-30.5 -8.5t-30.5 8.5t-10.5 32.5q0 20 11.5 30.5t29.5 10.5t29.5 -10.5t11.5 -30.5z" />
    <glyph glyph-name="uni06A5.medi" unicode="&#x6a5;" horiz-adv-x="512" 
d="M512 0q-16 0 -38 6t-45 18q-8 -15 -21 -19.5t-46 -4.5h-362q-7 0 -14 3.5t-13 9t-10 13t-4 14.5q0 9 10.5 13.5t30.5 4.5h262q34 0 58 -1.5t38 -5.5l2 3q-45 17 -96 39t-95 52.5t-73 73t-29 101.5q0 36 14.5 68t39.5 56.5t60.5 39t76.5 14.5t74.5 -14.5t59 -41t40 -61.5
t14.5 -73v-230q15 -8 33.5 -14t32.5 -6v-58zM390 311q0 25 -10 49.5t-27.5 42t-41.5 28.5t-53 11t-53.5 -10.5t-42.5 -27t-28 -38t-10 -45.5q0 -50 26 -85.5t66.5 -62.5t87 -46t86.5 -33v217zM351 -116q0 -41 -40 -41q-20 0 -30 10.5t-10 30.5q0 19 10 29t30 10t30 -9
t10 -30zM243 -116q0 -20 -10 -30.5t-30 -10.5q-40 0 -40 41q0 21 10 30t30 9t30 -10t10 -29zM298 -218q0 -24 -10.5 -32.5t-30.5 -8.5t-30.5 8.5t-10.5 32.5q0 20 11.5 30.5t29.5 10.5t29.5 -10.5t11.5 -30.5z" />
    <glyph glyph-name="uni06A5.fina" unicode="&#x6a5;" horiz-adv-x="940" 
d="M940 0q-14 0 -37 6t-44 18q-8 -15 -21.5 -19.5t-47.5 -4.5h-517q-44 0 -78 15t-59 42t-38.5 64.5t-13.5 82.5v148h54v-148q0 -30 10 -56.5t28 -46t42 -31.5t55 -12h417q36 0 59.5 -1.5t36.5 -5.5l2 3q-45 17 -96 39t-94.5 52.5t-73 73t-29.5 101.5q0 36 14.5 68
t40.5 56.5t60.5 39t75.5 14.5t75 -14.5t60 -41t39.5 -61.5t13.5 -73v-230q15 -8 34 -14t32 -6v-58zM819 311q0 25 -10.5 49.5t-27.5 42t-41.5 28.5t-53.5 11t-53.5 -10.5t-42 -27t-28 -38t-10.5 -45.5q0 -50 27 -85.5t67 -62.5t87 -46t86 -33v217zM776 -133q0 -41 -40 -41
q-20 0 -30 10.5t-10 30.5q0 19 10 29t30 10t30 -9t10 -30zM668 -133q0 -20 -10 -30.5t-30 -10.5q-40 0 -40 41q0 21 10 30t30 9t30 -10t10 -29zM723 -235q0 -24 -10.5 -32.5t-30.5 -8.5t-30.5 8.5t-10.5 32.5q0 20 11.5 30.5t29.5 10.5t29.5 -10.5t11.5 -30.5z" />
    <glyph glyph-name="uni06A7.fina" unicode="&#x6a7;" horiz-adv-x="685" 
d="M620 58h65v-58h-65v-21q0 -58 -21.5 -106.5t-60.5 -83t-92.5 -54t-114.5 -19.5q-70 0 -124 21.5t-91 63t-55.5 102.5t-18.5 139v74h54v-73q0 -67 16 -118t45.5 -86t72.5 -53.5t99 -18.5q49 0 92 16t74.5 43.5t50 63.5t18.5 76v34h-135q-39 0 -74 14.5t-60 39.5t-39.5 59
t-14.5 75v48q0 41 14 77.5t39.5 65t59.5 45.5t74 17q42 0 77.5 -17t61.5 -45.5t39.5 -65t13.5 -79.5v-176zM564 236q0 30 -10 56.5t-28.5 46t-43 32t-53.5 12.5t-52.5 -12.5t-40.5 -32t-27.5 -46t-10.5 -56.5v-48q0 -27 10.5 -51t28 -41.5t42 -27.5t53.5 -10h132v178z
M390 586q0 44 43 44t43 -44q0 -43 -43 -43t-43 43z" />
    <glyph glyph-name="uni06A8.fina" unicode="&#x6a8;" horiz-adv-x="685" 
d="M620 58h65v-58h-65v-21q0 -58 -21.5 -106.5t-60.5 -83t-92.5 -54t-114.5 -19.5q-70 0 -124 21.5t-91 63t-55.5 102.5t-18.5 139v74h54v-73q0 -67 16 -118t45.5 -86t72.5 -53.5t99 -18.5q49 0 92 16t74.5 43.5t50 63.5t18.5 76v34h-135q-39 0 -74 14.5t-60 39.5t-39.5 59
t-14.5 75v48q0 41 14 77.5t39.5 65t59.5 45.5t74 17q42 0 77.5 -17t61.5 -45.5t39.5 -65t13.5 -79.5v-176zM564 236q0 30 -10 56.5t-28.5 46t-43 32t-53.5 12.5t-52.5 -12.5t-40.5 -32t-27.5 -46t-10.5 -56.5v-48q0 -27 10.5 -51t28 -41.5t42 -27.5t53.5 -10h132v178z
M339 582q0 41 40 41q20 0 30 -10.5t10 -30.5q0 -19 -10 -29t-30 -10t-30 8.5t-10 30.5zM447 582q0 20 10 30.5t30 10.5q40 0 40 -41q0 -22 -10 -30.5t-30 -8.5t-30 10t-10 29zM392 684q0 24 10.5 32.5t30.5 8.5t30.5 -8.5t10.5 -32.5q0 -20 -11.5 -30.5t-29.5 -10.5
t-29.5 10.5t-11.5 30.5z" />
    <glyph glyph-name="uni06A9" unicode="&#x6a9;" horiz-adv-x="892" arabic-form="isolated" 
d="M586 444q50 -20 98 -49t87 -66t63.5 -81.5t24.5 -100.5q0 -32 -12.5 -59t-37 -47t-60 -30.5t-84.5 -10.5h-394q-42 0 -77 15t-59 42t-37.5 64.5t-13.5 82.5v82h54v-82q0 -30 10 -56.5t28 -46t42 -31.5t53 -12h387q39 0 66.5 8t44.5 20.5t25 29t8 31.5q0 49 -26.5 90
t-68.5 75t-94 60.5t-106 43.5v16l262 291h61v-7z" />
    <glyph glyph-name="uni06AA.init" unicode="&#x6aa;" horiz-adv-x="921" 
d="M0 0q-7 0 -14 3.5t-13 9t-10 13t-4 14.5q0 9 10.5 13.5t30.5 4.5h832v41q0 59 -38 88t-95 29h-577q-31 0 -48 10t-17 36q0 12 8.5 24t20.5 25l235 261h61v-7l-242 -271l-12.5 -12.5t-12.5 -10.5l1 -4q9 3 17.5 3.5t19.5 0.5h546q41 0 76 -11t60.5 -32t39.5 -53.5
t14 -74.5v-100h-889z" />
    <glyph glyph-name="uni06AA.medi" unicode="&#x6aa;" horiz-adv-x="956" 
d="M0 0q-7 0 -14 3.5t-13 9t-10 13t-4 14.5q0 9 10.5 13.5t30.5 4.5h832v41q0 59 -38 88t-95 29h-577q-31 0 -48 10t-17 36q0 12 8.5 24t20.5 25l235 261h61v-7l-242 -271l-12.5 -12.5t-12.5 -10.5l1 -4q9 3 17.5 3.5t19.5 0.5h546q41 0 76 -11t60.5 -32t39.5 -53.5
t14 -74.5v-42h67v-58h-956z" />
    <glyph glyph-name="uni06AA.fina" unicode="&#x6aa;" horiz-adv-x="1239" 
d="M283 0q-47 0 -83.5 14.5t-62.5 41.5t-39.5 64t-13.5 84v84h56v-84q0 -33 10.5 -60t30 -46t46.5 -29.5t60 -10.5h828v41q0 59 -38 88t-96 29h-577q-31 0 -47.5 10t-16.5 36q0 12 8.5 24t20.5 25l234 261h62v-7l-242 -271l-12.5 -12.5t-14.5 -10.5l2 -4q9 3 17.5 3.5
t19.5 0.5h546q41 0 76 -11t60.5 -32t40 -53.5t14.5 -74.5v-42h67v-58h-956z" />
    <glyph glyph-name="afii57509" unicode="&#x6af;" horiz-adv-x="892" arabic-form="isolated" 
d="M586 444q50 -20 98 -49t87 -66t63.5 -81.5t24.5 -100.5q0 -32 -12.5 -59t-37 -47t-60 -30.5t-84.5 -10.5h-394q-42 0 -77 15t-59 42t-37.5 64.5t-13.5 82.5v82h54v-82q0 -30 10 -56.5t28 -46t42 -31.5t53 -12h387q39 0 66.5 8t44.5 20.5t25 29t8 31.5q0 49 -26.5 90
t-68.5 75t-94 60.5t-106 43.5v16l262 291h61v-7zM655 723h39v-5l-182 -202h-4v46z" />
    <glyph glyph-name="afii57514" unicode="&#x6ba;" horiz-adv-x="597" arabic-form="isolated" 
d="M565 17q0 -72 -20.5 -129t-56 -96.5t-83 -59t-101.5 -19.5q-129 0 -195.5 86t-66.5 243v74h54v-73q0 -134 54.5 -203t153.5 -69q42 0 79.5 15t66 46.5t43.5 78.5t15 106v249h57v-249z" />
    <glyph glyph-name="uni06BE" unicode="&#x6be;" horiz-adv-x="777" arabic-form="isolated" 
d="M735 -20q-59 6 -124.5 18.5t-117.5 27.5q-10 -14 -23 -20t-42 -6h-344v58h252q31 0 52.5 -0.5t34.5 -4.5l1 2q-39 15 -83.5 34t-82 46.5t-63 64.5t-25.5 87q0 32 12 60t32 49t48 34.5t61 14.5v38h183q51 0 95 -19.5t76 -54t50 -80t18 -96.5v-244zM689 233
q0 40 -14.5 75.5t-39 62.5t-58 43.5t-71.5 16.5h-137v-3q29 -3 54 -17.5t43.5 -36.5t29 -52t10.5 -64v-180q39 -13 90.5 -24.5t92.5 -13.5v193zM453 258q0 26 -9 51.5t-25 44.5t-38.5 30t-48.5 11q-23 0 -42.5 -9t-34 -23.5t-23 -35t-8.5 -43.5q0 -42 23 -72t57 -52.5
t73.5 -39t75.5 -29.5v167z" />
    <glyph glyph-name="uni06C0" unicode="&#x6c0;" horiz-adv-x="495" arabic-form="isolated" 
d="M464 190q0 -44 -14.5 -81t-40.5 -64t-60 -43t-75 -16t-75 16t-60 43t-40.5 64t-14.5 81v46q0 42 14.5 79t40.5 65t60 44.5t75 16.5t75 -16.5t60 -44.5t40.5 -65t14.5 -79v-46zM407 236q0 30 -10.5 57t-28.5 47.5t-41.5 32.5t-52.5 12t-52.5 -12t-42 -32.5t-28.5 -47.5
t-10 -57v-46q0 -31 10 -57t28.5 -46t42 -32t52.5 -12t52.5 12t41.5 32t28.5 46t10.5 57v46zM208 539v74q0 43 26.5 72t68.5 29h36v-37h-36q-25 0 -42 -18.5t-17 -45.5v-36h95v-38h-131z" />
    <glyph glyph-name="uni06C1" unicode="&#x6c1;" horiz-adv-x="473" arabic-form="isolated" 
d="M273 369q-29 0 -53 -12t-42.5 -31.5t-27.5 -46.5t-9 -58v-221h-57v221q0 42 14.5 79t39.5 65.5t59.5 45t75.5 16.5h134v-302q0 -26 18.5 -46.5t47.5 -20.5v-58q-63 0 -93.5 35.5t-30.5 89.5v244h-76z" />
    <glyph glyph-name="uni06C2.isol" unicode="&#x6c2;" horiz-adv-x="495" 
d="M464 190q0 -44 -14.5 -81t-40.5 -64t-60 -43t-75 -16t-75 16t-60 43t-40.5 64t-14.5 81v46q0 42 14.5 79t40.5 65t60 44.5t75 16.5t75 -16.5t60 -44.5t40.5 -65t14.5 -79v-46zM407 236q0 30 -10.5 57t-28.5 47.5t-41.5 32.5t-52.5 12t-52.5 -12t-42 -32.5t-28.5 -47.5
t-10 -57v-46q0 -31 10 -57t28.5 -46t42 -32t52.5 -12t52.5 12t41.5 32t28.5 46t10.5 57v46zM208 539v74q0 43 26.5 72t68.5 29h36v-37h-36q-25 0 -42 -18.5t-17 -45.5v-36h95v-38h-131z" />
    <glyph glyph-name="uni06C3.isol" unicode="&#x6c3;" horiz-adv-x="495" 
d="M464 190q0 -44 -14.5 -81t-40.5 -64t-60 -43t-75 -16t-75 16t-60 43t-40.5 64t-14.5 81v46q0 42 14.5 79t40.5 65t60 44.5t75 16.5t75 -16.5t60 -44.5t40.5 -65t14.5 -79v-46zM407 236q0 30 -10.5 57t-28.5 47.5t-41.5 32.5t-52.5 12t-52.5 -12t-42 -32.5t-28.5 -47.5
t-10 -57v-46q0 -31 10 -57t28.5 -46t42 -32t52.5 -12t52.5 12t41.5 32t28.5 46t10.5 57v46zM182 582q0 41 41 41q18 0 28.5 -10.5t10.5 -30.5t-10.5 -29.5t-28.5 -9.5q-20 0 -30.5 9t-10.5 30zM284 582q0 20 10.5 30.5t28.5 10.5q41 0 41 -41q0 -21 -10.5 -30t-30.5 -9
q-18 0 -28.5 9.5t-10.5 29.5z" />
    <glyph glyph-name="uni06CC" unicode="&#x6cc;" horiz-adv-x="795" arabic-form="isolated" 
d="M707 0v354h-24q-28 0 -50 -11.5t-37 -32t-23 -47t-8 -55.5v-212q0 -64 -20.5 -117.5t-55.5 -90t-83 -56t-102 -19.5q-129 0 -195.5 86t-66.5 243v74h54v-74q0 -133 54.5 -202t153.5 -69q42 0 79.5 15t66 44.5t43.5 72t15 94.5v211q0 42 12.5 79t35.5 65.5t55.5 44
t71.5 15.5h80v-412h-56z" />
    <glyph glyph-name="afii57519" unicode="&#x6d2;" horiz-adv-x="801" arabic-form="isolated" 
d="M368 0v354h-24q-28 0 -50.5 -11.5t-37 -32t-22 -47t-7.5 -55.5v-196q0 -55 -16 -91.5t-48 -57.5v-3h812v-58h-933v58l20 6q54 15 81 49.5t27 96.5v196q0 42 12 79t35 65.5t55 44t73 15.5h79v-412h-56z" />
    <glyph glyph-name="uni06D3" unicode="&#x6d3;" horiz-adv-x="801" arabic-form="isolated" 
d="M368 0v354h-24q-28 0 -50.5 -11.5t-37 -32t-22 -47t-7.5 -55.5v-196q0 -55 -16 -91.5t-48 -57.5v-3h812v-58h-933v58l20 6q54 15 81 49.5t27 96.5v196q0 42 12 79t35 65.5t55 44t73 15.5h79v-412h-56zM296 531v74q0 43 26.5 72t68.5 29h36v-37h-36q-25 0 -42 -18.5
t-17 -45.5v-36h95v-38h-131z" />
    <glyph glyph-name="afii57534.fina" unicode="&#x6d5;" horiz-adv-x="533" 
d="M533 0q-39 0 -65 20t-36 62h-3q-22 -45 -65.5 -70.5t-89.5 -25.5q-40 0 -74.5 16t-60.5 44t-40.5 64t-14.5 78v33q0 41 14.5 78.5t39.5 65t60 45t75 17.5h191v-285q0 -39 18 -61.5t51 -22.5v-58zM273 369q-29 0 -53 -12t-41.5 -31.5t-27.5 -46.5t-10 -58v-33
q0 -29 10 -55t28.5 -46t42 -32t52.5 -12t53.5 12t41.5 32t27.5 46t10.5 55v181h-134z" />
    <glyph glyph-name="uniFB51" unicode="&#x671;" horiz-adv-x="204" arabic-form="final" 
d="M204 0q-31 0 -53 8.5t-37 25t-22.5 39.5t-7.5 52v470h57v-470q0 -30 17 -48.5t46 -18.5v-58zM67 677v71h29v-12q0 -8 -3 -18l1 -2l6 10q12 19 25 26.5t27 7.5q25 0 39 -14.5t14 -48.5v-49h-145q-17 0 -23 2t-14 12l-37 -19v33l47 26h2q3 -13 10 -19t17 -6h5zM173 693
q0 12 -3 25t-16 13q-9 0 -16.5 -4t-18.5 -18l-23 -32h77v16z" />
    <glyph glyph-name="uniFB57" unicode="&#x67e;" horiz-adv-x="728" arabic-form="final" 
d="M662 146q0 -39 18.5 -63.5t47.5 -24.5v-58q-14 0 -29.5 4.5t-26.5 12.5t-20 20t-13 26h-3q-12 -29 -33.5 -46t-63.5 -17h-266q-41 0 -76 14.5t-60 40t-39 60t-14 73.5v35q0 48 16.5 86.5t43 64.5t60.5 40.5t70 14.5v-54q-26 0 -50.5 -11t-43 -31.5t-29 -49t-10.5 -60.5
v-35q0 -25 9 -48.5t27.5 -42t42.5 -29t53 -10.5h266q33 0 50 22.5t17 52.5v279h56v-266zM498 -109q0 -41 -40 -41q-20 0 -30 10.5t-10 30.5q0 19 10 29t30 10t30 -9t10 -30zM390 -109q0 -20 -10 -30.5t-30 -10.5q-40 0 -40 41q0 21 10 30t30 9t30 -10t10 -29zM445 -211
q0 -24 -10.5 -32.5t-30.5 -8.5t-30.5 8.5t-10.5 32.5q0 20 11.5 30.5t29.5 10.5t29.5 -10.5t11.5 -30.5z" />
    <glyph glyph-name="uniFB58" unicode="&#x67e;" horiz-adv-x="237" arabic-form="initial" 
d="M205 170q0 -54 -13 -87t-39.5 -52t-64.5 -25t-88 -6q-7 0 -14 3.5t-13 9t-10 13t-4 14.5q0 9 10.5 13.5t30.5 4.5q42 0 70.5 4.5t45.5 16.5t25 33.5t8 57.5v242h56v-242zM210 -109q0 -41 -40 -41q-20 0 -30 10.5t-10 30.5q0 19 10 29t30 10t30 -9t10 -30zM102 -109
q0 -20 -10 -30.5t-30 -10.5q-40 0 -40 41q0 21 10 30t30 9t30 -10t10 -29zM157 -211q0 -24 -10.5 -32.5t-30.5 -8.5t-30.5 8.5t-10.5 32.5q0 20 11.5 30.5t29.5 10.5t29.5 -10.5t11.5 -30.5z" />
    <glyph glyph-name="uniFB59" unicode="&#x67e;" horiz-adv-x="246" arabic-form="medial" 
d="M246 0q-48 0 -77 12t-44 47h-3q-9 -17 -22 -29t-28 -18.5t-33.5 -9t-38.5 -2.5q-12 0 -26.5 12t-14.5 28q0 9 10.5 13.5t30.5 4.5q45 0 69.5 17t24.5 61v189h56v-189q0 -45 24 -61.5t72 -16.5v-58zM201 -133q0 -41 -40 -41q-20 0 -30 10.5t-10 30.5q0 19 10 29t30 10
t30 -9t10 -30zM93 -133q0 -20 -10 -30.5t-30 -10.5q-40 0 -40 41q0 21 10 30t30 9t30 -10t10 -29zM148 -235q0 -24 -10.5 -32.5t-30.5 -8.5t-30.5 8.5t-10.5 32.5q0 20 11.5 30.5t29.5 10.5t29.5 -10.5t11.5 -30.5z" />
    <glyph glyph-name="uniFB67" unicode="&#x679;" horiz-adv-x="728" arabic-form="final" 
d="M662 146q0 -39 18.5 -63.5t47.5 -24.5v-58q-14 0 -29.5 4.5t-26.5 12.5t-20 20t-13 26h-3q-12 -29 -33.5 -46t-63.5 -17h-266q-41 0 -76 14.5t-60 40t-39 60t-14 73.5v35q0 48 16.5 86.5t43 64.5t60.5 40.5t70 14.5v-54q-26 0 -50.5 -11t-43 -31.5t-29 -49t-10.5 -60.5
v-35q0 -25 9 -48.5t27.5 -42t42.5 -29t53 -10.5h266q33 0 50 22.5t17 52.5v279h56v-266zM335 502v33h34v128h33v-57q0 -4 -0.5 -12.5t-3.5 -15.5l3 -1l6 9q12 17 26.5 26.5t31.5 9.5q21 0 38.5 -14t17.5 -49v-57h-186zM489 555q0 14 -5.5 23.5t-18.5 9.5q-12 0 -19.5 -7
t-17.5 -17l-22 -29h83v20z" />
    <glyph glyph-name="uniFB68" unicode="&#x679;" horiz-adv-x="237" arabic-form="initial" 
d="M205 170q0 -54 -13 -87t-39.5 -52t-64.5 -25t-88 -6q-7 0 -14 3.5t-13 9t-10 13t-4 14.5q0 9 10.5 13.5t30.5 4.5q42 0 70.5 4.5t45.5 16.5t25 33.5t8 57.5v242h56v-242zM32 533v33h34v128h33v-57q0 -4 -0.5 -12.5t-3.5 -15.5l3 -1l6 9q12 17 26.5 26.5t31.5 9.5
q21 0 38.5 -14t17.5 -49v-57h-186zM186 586q0 14 -5.5 23.5t-18.5 9.5q-12 0 -19.5 -7t-17.5 -17l-22 -29h83v20z" />
    <glyph glyph-name="uniFB69" unicode="&#x679;" horiz-adv-x="246" arabic-form="medial" 
d="M246 0q-48 0 -77 12t-44 47h-3q-9 -17 -22 -29t-28 -18.5t-33.5 -9t-38.5 -2.5q-12 0 -26.5 12t-14.5 28q0 9 10.5 13.5t30.5 4.5q45 0 69.5 17t24.5 61v189h56v-189q0 -45 24 -61.5t72 -16.5v-58zM29 453v33h34v128h33v-57q0 -4 -0.5 -12.5t-3.5 -15.5l3 -1l6 9
q12 17 26.5 26.5t31.5 9.5q21 0 38.5 -14t17.5 -49v-57h-186zM183 506q0 14 -5.5 23.5t-18.5 9.5q-12 0 -19.5 -7t-17.5 -17l-22 -29h83v20z" />
    <glyph glyph-name="uniFB6B" unicode="&#x6a4;" horiz-adv-x="940" arabic-form="final" 
d="M940 0q-14 0 -37 6t-44 18q-8 -15 -21.5 -19.5t-47.5 -4.5h-517q-44 0 -78 15t-59 42t-38.5 64.5t-13.5 82.5v148h54v-148q0 -30 10 -56.5t28 -46t42 -31.5t55 -12h417q36 0 59.5 -1.5t36.5 -5.5l2 3q-45 17 -96 39t-94.5 52.5t-73 73t-29.5 101.5q0 36 14.5 68
t40.5 56.5t60.5 39t75.5 14.5t75 -14.5t60 -41t39.5 -61.5t13.5 -73v-230q15 -8 34 -14t32 -6v-58zM819 311q0 25 -10.5 49.5t-27.5 42t-41.5 28.5t-53.5 11t-53.5 -10.5t-42 -27t-28 -38t-10.5 -45.5q0 -50 27 -85.5t67 -62.5t87 -46t86 -33v217zM578 609q0 41 40 41
q20 0 30 -10.5t10 -30.5q0 -19 -10 -29t-30 -10t-30 8.5t-10 30.5zM686 609q0 20 10 30.5t30 10.5q40 0 40 -41q0 -22 -10 -30.5t-30 -8.5t-30 10t-10 29zM631 711q0 24 10.5 32.5t30.5 8.5t30.5 -8.5t10.5 -32.5q0 -20 -11.5 -30.5t-29.5 -10.5t-29.5 10.5t-11.5 30.5z" />
    <glyph glyph-name="uniFB6C" unicode="&#x6a4;" horiz-adv-x="478" arabic-form="initial" 
d="M0 0q-7 0 -14 3.5t-13 9t-10 13t-4 14.5q0 9 10.5 13.5t30.5 4.5h271q29 0 51.5 -2t39.5 -7l1 2q-46 20 -98 42t-96 52.5t-73 73t-29 101.5q0 36 14.5 68t39.5 56.5t60.5 39t76.5 14.5t74.5 -14.5t59 -41t40 -61.5t14.5 -73v-308h-446zM390 311q0 25 -10 48.5t-27.5 42
t-41.5 29.5t-53 11t-54 -10.5t-42.5 -27t-27.5 -38t-10 -45.5q0 -50 26 -85.5t66.5 -62.5t87 -46.5t86.5 -35.5v220zM160 609q0 41 40 41q20 0 30 -10.5t10 -30.5q0 -19 -10 -29t-30 -10t-30 8.5t-10 30.5zM268 609q0 20 10 30.5t30 10.5q40 0 40 -41q0 -22 -10 -30.5
t-30 -8.5t-30 10t-10 29zM213 711q0 24 10.5 32.5t30.5 8.5t30.5 -8.5t10.5 -32.5q0 -20 -11.5 -30.5t-29.5 -10.5t-29.5 10.5t-11.5 30.5z" />
    <glyph glyph-name="uniFB6D" unicode="&#x6a4;" horiz-adv-x="512" arabic-form="medial" 
d="M512 0q-16 0 -38 6t-45 18q-8 -15 -21 -19.5t-46 -4.5h-362q-7 0 -14 3.5t-13 9t-10 13t-4 14.5q0 9 10.5 13.5t30.5 4.5h262q34 0 58 -1.5t38 -5.5l2 3q-45 17 -96 39t-95 52.5t-73 73t-29 101.5q0 36 14.5 68t39.5 56.5t60.5 39t76.5 14.5t74.5 -14.5t59 -41t40 -61.5
t14.5 -73v-230q15 -8 33.5 -14t32.5 -6v-58zM390 311q0 25 -10 49.5t-27.5 42t-41.5 28.5t-53 11t-53.5 -10.5t-42.5 -27t-28 -38t-10 -45.5q0 -50 26 -85.5t66.5 -62.5t87 -46t86.5 -33v217zM160 609q0 41 40 41q20 0 30 -10.5t10 -30.5q0 -19 -10 -29t-30 -10t-30 8.5
t-10 30.5zM268 609q0 20 10 30.5t30 10.5q40 0 40 -41q0 -22 -10 -30.5t-30 -8.5t-30 10t-10 29zM213 711q0 24 10.5 32.5t30.5 8.5t30.5 -8.5t10.5 -32.5q0 -20 -11.5 -30.5t-29.5 -10.5t-29.5 10.5t-11.5 30.5z" />
    <glyph glyph-name="uniFB7B" unicode="&#x686;" horiz-adv-x="504" arabic-form="final" 
d="M315 0q-44 0 -75 -9t-52 -25t-31 -38t-10 -45q0 -19 5.5 -37.5t23.5 -34t48.5 -28t81.5 -16.5l17 -1v-52h-17q-57 0 -97 13.5t-66 35.5t-38.5 53t-12.5 67q0 39 16 71.5t45.5 55.5t71.5 35t96 12q25 0 48 -2t35 -5l3 4q-11 12 -17.5 31t-6.5 62v86q0 32 -8 59t-23 47.5
t-37.5 31.5t-51.5 11q-43 0 -75.5 -20t-61.5 -54l-38 33q33 41 76.5 69.5t100.5 28.5q42 0 74 -15.5t55 -42.5t34.5 -65t11.5 -86v-83q0 -32 6 -55.5t20 -33.5h38v-58h-189zM493 -90q0 -41 -40 -41q-18 0 -28 10.5t-10 30.5q0 18 10 28t28 10q20 0 30 -8.5t10 -29.5z
M389 -90q0 -20 -10 -30.5t-28 -10.5q-40 0 -40 41q0 21 10 29.5t30 8.5q18 0 28 -10t10 -28zM442 -190q0 -22 -10 -31t-30 -9t-30 9t-10 31q0 20 11 30.5t29 10.5t29 -10.5t11 -30.5z" />
    <glyph glyph-name="uniFB7C" unicode="&#x686;" horiz-adv-x="470" arabic-form="initial" 
d="M417 -12q-26 7 -57.5 9.5t-67.5 2.5h-292q-7 0 -14 3.5t-13 9t-10 13t-4 14.5q0 9 10.5 13.5t30.5 4.5h298q18 0 34 -2t29 -6l2 4q-5 5 -9.5 13t-7 18.5t-4.5 25.5t-2 36v91q0 32 -8 59t-23 47.5t-37 32t-52 11.5q-44 0 -75.5 -19.5t-60.5 -53.5l-38 34q34 41 76.5 68
t98.5 27q42 0 75 -15t55 -42t33.5 -65t11.5 -84v-92q0 -38 8 -61.5t21 -34.5l14 -10zM303 -112q0 -41 -40 -41q-20 0 -30 10.5t-10 30.5q0 19 10 29t30 10t30 -9t10 -30zM195 -112q0 -20 -10 -30.5t-30 -10.5q-40 0 -40 41q0 21 10 30t30 9t30 -10t10 -29zM250 -214
q0 -24 -10.5 -32.5t-30.5 -8.5t-30.5 8.5t-10.5 32.5q0 20 11.5 30.5t29.5 10.5t29.5 -10.5t11.5 -30.5z" />
    <glyph glyph-name="uniFB7D" unicode="&#x686;" horiz-adv-x="456" arabic-form="medial" 
d="M0 0q-7 0 -14 3.5t-13 9t-10 13t-4 14.5q0 9 10.5 13.5t30.5 4.5h298q18 0 34 -2t29 -6l2 4q-5 5 -9.5 13t-7 18.5t-4.5 25.5t-2 36v91q0 32 -8 59t-23 47.5t-37 32t-52 11.5q-44 0 -75.5 -19.5t-60.5 -53.5l-38 34q34 41 76.5 68t98.5 27q42 0 75 -15t55 -42t33.5 -65
t11.5 -84v-92q0 -31 6 -54.5t21 -33.5h33v-58h-456zM303 -112q0 -41 -40 -41q-20 0 -30 10.5t-10 30.5q0 19 10 29t30 10t30 -9t10 -30zM195 -112q0 -20 -10 -30.5t-30 -10.5q-40 0 -40 41q0 21 10 30t30 9t30 -10t10 -29zM250 -214q0 -24 -10.5 -32.5t-30.5 -8.5t-30.5 8.5
t-10.5 32.5q0 20 11.5 30.5t29.5 10.5t29.5 -10.5t11.5 -30.5z" />
    <glyph glyph-name="uniFB89" unicode="&#x688;" horiz-adv-x="514" arabic-form="final" 
d="M84 0v58h307v149q0 30 -10.5 57.5t-28 48t-42 32.5t-52.5 12h-145v55h145q41 0 75 -16.5t60 -43.5t40.5 -64.5t14.5 -79.5v-150h66v-58h-430zM113 536v33h34v128h33v-57q0 -4 -0.5 -12.5t-3.5 -15.5l3 -1l6 9q12 17 26.5 26.5t31.5 9.5q21 0 38.5 -14t17.5 -49v-57h-186z
M267 589q0 14 -5.5 23.5t-18.5 9.5q-12 0 -19.5 -7t-17.5 -17l-22 -29h83v20z" />
    <glyph glyph-name="uniFB8B" unicode="&#x698;" horiz-adv-x="340" arabic-form="final" 
d="M340 0q-23 0 -38.5 7t-26.5 27h-4q2 -18 2.5 -34.5t0.5 -35.5q0 -56 -18.5 -102t-54 -78.5t-86 -51t-115.5 -18.5v52q54 0 95 15t68 42t41.5 64t14.5 77v317h55v-145q0 -40 20.5 -59t45.5 -19v-58zM117 516q0 41 40 41q20 0 30 -10.5t10 -30.5q0 -19 -10 -29t-30 -10
t-30 8.5t-10 30.5zM225 516q0 20 10 30.5t30 10.5q40 0 40 -41q0 -22 -10 -30.5t-30 -8.5t-30 10t-10 29zM170 618q0 24 10.5 32.5t30.5 8.5t30.5 -8.5t10.5 -32.5q0 -20 -11.5 -30.5t-29.5 -10.5t-29.5 10.5t-11.5 30.5z" />
    <glyph glyph-name="uniFB8D" unicode="&#x691;" horiz-adv-x="340" arabic-form="final" 
d="M340 0q-23 0 -38.5 7t-26.5 27h-4q2 -18 2.5 -34.5t0.5 -35.5q0 -56 -18.5 -102t-54 -78.5t-86 -51t-115.5 -18.5v52q54 0 95 15t68 42t41.5 64t14.5 77v317h55v-145q0 -40 20.5 -59t45.5 -19v-58zM116 477v33h34v128h33v-57q0 -4 -0.5 -12.5t-3.5 -15.5l3 -1l6 9
q12 17 26.5 26.5t31.5 9.5q21 0 38.5 -14t17.5 -49v-57h-186zM270 530q0 14 -5.5 23.5t-18.5 9.5q-12 0 -19.5 -7t-17.5 -17l-22 -29h83v20z" />
    <glyph glyph-name="uniFB8F" unicode="&#x6a9;" horiz-adv-x="907" arabic-form="final" 
d="M586 444q50 -20 98 -49t87 -65t63.5 -81t24.5 -98q0 -25 -10 -49t-34 -41v-3h92v-58h-636q-42 0 -77 15t-59 42t-37.5 64.5t-13.5 82.5v82h54v-82q0 -30 10 -56.5t28 -46t42 -31.5t53 -12h387q39 0 66.5 8t44.5 20.5t25 29t8 31.5q0 49 -26.5 90t-68.5 75t-94 60.5
t-106 43.5v16l262 291h61v-7z" />
    <glyph glyph-name="uniFB90" unicode="&#x6a9;" horiz-adv-x="404" arabic-form="initial" 
d="M99 444q50 -20 98 -49t87 -66t63 -81.5t24 -100.5q0 -32 -12.5 -59t-36.5 -47t-59.5 -30.5t-84.5 -10.5h-178q-7 0 -14 3.5t-13 9t-10 13t-4 14.5q0 9 10.5 13.5t30.5 4.5h171q38 0 66 8t45 20.5t25 29t8 31.5q0 49 -26.5 90t-68.5 75t-94 60.5t-106 43.5v16l262 291h60
v-7z" />
    <glyph glyph-name="uniFB91" unicode="&#x6a9;" horiz-adv-x="420" arabic-form="medial" 
d="M99 445q50 -21 98 -50t87 -66t63 -81t24 -97q0 -25 -9.5 -49t-33.5 -41v-3h92v-58h-420q-7 0 -14 3.5t-13 9t-10 13t-4 14.5q0 9 10.5 13.5t30.5 4.5h171q38 0 66 8t45 20.5t25 29t8 31.5q0 49 -26.5 90t-68.5 75t-94 60.5t-106 43.5v16l262 291h60v-7z" />
    <glyph glyph-name="uniFB93" unicode="&#x6af;" horiz-adv-x="907" arabic-form="final" 
d="M586 444q50 -20 98 -49t87 -65t63.5 -81t24.5 -98q0 -25 -10 -49t-34 -41v-3h92v-58h-636q-42 0 -77 15t-59 42t-37.5 64.5t-13.5 82.5v82h54v-82q0 -30 10 -56.5t28 -46t42 -31.5t53 -12h387q39 0 66.5 8t44.5 20.5t25 29t8 31.5q0 49 -26.5 90t-68.5 75t-94 60.5
t-106 43.5v16l262 291h61v-7zM655 723h39v-5l-182 -202h-4v46z" />
    <glyph glyph-name="uniFB94" unicode="&#x6af;" horiz-adv-x="404" arabic-form="initial" 
d="M99 444q50 -20 98 -49t87 -66t63 -81.5t24 -100.5q0 -32 -12.5 -59t-36.5 -47t-59.5 -30.5t-84.5 -10.5h-178q-7 0 -14 3.5t-13 9t-10 13t-4 14.5q0 9 10.5 13.5t30.5 4.5h171q38 0 66 8t45 20.5t25 29t8 31.5q0 49 -26.5 90t-68.5 75t-94 60.5t-106 43.5v16l262 291h60
v-7zM167 723h39v-5l-182 -202h-4v46z" />
    <glyph glyph-name="uniFB95" unicode="&#x6af;" horiz-adv-x="420" arabic-form="medial" 
d="M99 445q50 -21 98 -50t87 -66t63 -81t24 -97q0 -25 -9.5 -49t-33.5 -41v-3h92v-58h-420q-7 0 -14 3.5t-13 9t-10 13t-4 14.5q0 9 10.5 13.5t30.5 4.5h171q38 0 66 8t45 20.5t25 29t8 31.5q0 49 -26.5 90t-68.5 75t-94 60.5t-106 43.5v16l262 291h60v-7zM167 723h39v-5
l-182 -202h-4v46z" />
    <glyph glyph-name="uniFB9F" unicode="&#x6ba;" horiz-adv-x="631" arabic-form="final" 
d="M565 151q0 -50 19 -71.5t47 -21.5v-58q-19 0 -37 9t-30 31h-3q1 -7 2 -20t1 -21q0 -66 -20 -119t-55.5 -90.5t-83 -57t-101.5 -19.5q-129 0 -195.5 86t-66.5 243v74h54v-73q0 -134 54.5 -203t153.5 -69q42 0 79.5 15t66 46.5t43.5 78.5t15 106v249h57v-115z" />
    <glyph glyph-name="uniFBA5" unicode="&#x6c0;" horiz-adv-x="533" arabic-form="final" 
d="M533 0q-39 0 -65 20t-36 62h-3q-22 -45 -65.5 -70.5t-89.5 -25.5q-40 0 -74.5 16t-60.5 44t-40.5 64t-14.5 78v33q0 41 14.5 78.5t39.5 65t60 45t75 17.5h191v-285q0 -39 18 -61.5t51 -22.5v-58zM273 369q-29 0 -53 -12t-41.5 -31.5t-27.5 -46.5t-10 -58v-33
q0 -29 10 -55t28.5 -46t42 -32t52.5 -12t53.5 12t41.5 32t27.5 46t10.5 55v181h-134zM238 539v74q0 43 26.5 72t68.5 29h36v-37h-36q-25 0 -42 -18.5t-17 -45.5v-36h95v-38h-131z" />
    <glyph glyph-name="uniFBA7" unicode="&#x6c1;" horiz-adv-x="473" arabic-form="final" 
d="M273 369q-29 0 -53 -12t-42.5 -31.5t-27.5 -46.5t-9 -58v-221h-57v221q0 42 14.5 79t39.5 65.5t59.5 45t75.5 16.5h134v-302q0 -26 18.5 -46.5t47.5 -20.5v-58q-63 0 -93.5 35.5t-30.5 89.5v244h-76z" />
    <glyph glyph-name="uniFBA8" unicode="&#x6c1;" horiz-adv-x="237" arabic-form="initial" 
d="M205 170q0 -54 -13 -87t-39.5 -52t-64.5 -25t-88 -6q-7 0 -14 3.5t-13 9t-10 13t-4 14.5q0 9 10.5 13.5t30.5 4.5q42 0 70.5 4.5t45.5 16.5t25 33.5t8 57.5v242h56v-242zM185 -179l-27 -36q-9 -13 -21.5 -18.5t-24.5 -5.5q-24 0 -39 14t-15 38q0 9 1 19.5t4 19.5l35 131
l31 -11l-30 -134q-4 -13 -4 -21q0 -7 4.5 -11.5t12.5 -4.5q7 0 11 2.5t8 6.5l29 34z" />
    <glyph glyph-name="uniFBA9" unicode="&#x6c1;" horiz-adv-x="386" arabic-form="medial" 
d="M0 58q18 0 34.5 7t28.5 20.5t18.5 29t6.5 34.5v117h54v-241q0 -46 8.5 -79.5t22.5 -59.5t32.5 -44t39.5 -33l4 4q-13 18 -21 48.5t-8 55.5q0 36 14 62t36 43.5t52.5 26.5t63.5 9v-58q-50 0 -80.5 -26.5t-30.5 -65.5q0 -32 9.5 -66t47.5 -76l-33 -45q-42 14 -79.5 40
t-66.5 61.5t-46 83t-19 106.5v31h-2q-15 -21 -35.5 -32t-50.5 -11q-7 0 -14 3.5t-13 9t-10 13t-4 14.5q0 9 10.5 13.5t30.5 4.5z" />
    <glyph glyph-name="uniFBAB" unicode="&#x6be;" horiz-adv-x="615" arabic-form="final" 
d="M615 0q-30 0 -51 -8t-34.5 -22.5t-20 -33t-6.5 -36.5q0 -37 16.5 -78t52.5 -72l-35 -46q-50 19 -96.5 45t-83.5 61.5t-60.5 85t-30.5 116.5q-14 -5 -34.5 -12t-43 -12t-45.5 -10.5t-43 -7.5l-16 56q42 7 91.5 18t87.5 27v403l11 9h34q58 0 107 -7.5t84.5 -26t56 -49.5
t20.5 -76q0 -55 -22 -101.5t-57.5 -82.5t-81.5 -63.5t-95 -46.5q3 -51 16.5 -89t35.5 -67t49 -49.5t54 -33.5l4 5q-13 20 -21.5 49.5t-8.5 58.5q0 35 12.5 63.5t35 49t53.5 31t65 10.5v-58zM522 320q0 30 -14 50.5t-40.5 32.5t-64.5 16.5t-84 5.5v-337q38 15 74 37t64.5 51
t46.5 65t18 79z" />
    <glyph glyph-name="uniFBAC" unicode="&#x6be;" horiz-adv-x="674" arabic-form="initial" 
d="M632 -20q-59 6 -124.5 18.5t-119.5 27.5q-9 -14 -21.5 -20t-41.5 -6h-325q-7 0 -14 3.5t-13 9t-10 13t-4 14.5q0 9 10.5 13.5t30.5 4.5h234q32 0 52.5 -0.5t33.5 -4.5l1 2q-39 15 -83 34t-82.5 46.5t-63.5 64.5t-25 87q0 32 11.5 60t31.5 49t48.5 34.5t60.5 14.5v38h184
q51 0 94.5 -19.5t76 -54t50 -80t17.5 -96.5v-244zM586 233q0 40 -14.5 75.5t-39 62.5t-58 43.5t-71.5 16.5h-137v-3q29 -3 54 -17.5t43.5 -36.5t29 -52t10.5 -64v-180q39 -13 90.5 -24.5t92.5 -13.5v193zM349 258q0 26 -8.5 51.5t-24.5 44.5t-38.5 30t-48.5 11q-22 0 -42 -9
t-34.5 -23.5t-23 -35t-8.5 -43.5q0 -42 23 -72t57.5 -52.5t74 -39t73.5 -29.5v167z" />
    <glyph glyph-name="uniFBAD" unicode="&#x6be;" horiz-adv-x="440" arabic-form="medial" 
d="M440 0q-29 0 -51 -8t-35 -22.5t-19.5 -33t-6.5 -36.5q0 -37 16.5 -78t51.5 -72l-34 -46q-51 19 -98 45t-83 61.5t-60 85t-30 116.5q-16 -8 -38.5 -10t-52.5 -2q-7 0 -14 3.5t-13 9t-10 13t-4 14.5q0 9 10.5 13.5t30.5 4.5q40 0 59 3.5t29 9.5v403l11 9h34
q58 0 106.5 -7.5t84.5 -26t56 -49.5t20 -76q0 -54 -21.5 -99t-57 -82.5t-81.5 -65.5t-95 -47q2 -51 16 -89t36 -67t49 -49.5t54 -33.5l4 5q-13 20 -22 49.5t-9 58.5q0 35 13 63.5t35.5 49t52.5 31t66 10.5v-58zM345 320q0 30 -14 50.5t-39.5 33t-63.5 17t-84 4.5v-337
q35 16 71.5 37t65 49.5t46.5 64t18 81.5z" />
    <glyph glyph-name="uniFBAF" unicode="&#x6d2;" horiz-adv-x="403" arabic-form="final" 
d="M42 -198v116q0 33 10 60t28 44.5t43.5 26.5t57.5 9h222v-58h-222q-37 0 -60 -19t-23 -61v-60h719v-58h-775z" />
    <glyph glyph-name="uniFBB1" unicode="&#x6d3;" horiz-adv-x="490" arabic-form="final" 
d="M368 0v354h-24q-28 0 -50.5 -11.5t-37 -32t-22 -47t-7.5 -55.5v-196q0 -55 -16 -91.5t-48 -57.5v-3h714v-58h-835v58l20 6q54 15 81 49.5t27 96.5v196q0 42 12 79t35 65.5t55 44t73 15.5h79v-354h66v-58h-122zM296 531v74q0 43 26.5 72t68.5 29h36v-37h-36
q-25 0 -42 -18.5t-17 -45.5v-36h95v-38h-131z" />
    <glyph glyph-name="uniFBE8" unicode="&#x649;" horiz-adv-x="154" arabic-form="initial" 
d="M122 136q0 -60 -32 -98t-90 -38q-7 0 -14 3.5t-13 9t-10 13t-4 14.5q0 9 10.5 13.5t30.5 4.5q33 0 49.5 21.5t16.5 56.5v276h56v-276z" />
    <glyph glyph-name="uniFBE9" unicode="&#x649;" horiz-adv-x="246" arabic-form="medial" 
d="M246 0q-48 0 -77 12t-44 47h-3q-9 -17 -22 -29t-28 -18.5t-33.5 -9t-38.5 -2.5q-12 0 -26.5 12t-14.5 28q0 9 10.5 13.5t30.5 4.5q45 0 69.5 17t24.5 61v189h56v-189q0 -45 24 -61.5t72 -16.5v-58z" />
    <glyph glyph-name="uniFBFD" unicode="&#x6cc;" horiz-adv-x="828" arabic-form="final" 
d="M707 0v354h-24q-28 0 -50 -11.5t-37 -32t-23 -47t-8 -55.5v-211q0 -65 -20.5 -118.5t-55.5 -90t-83 -56t-103 -19.5q-128 0 -194.5 86t-66.5 244v73h54v-73q0 -134 54.5 -203t153.5 -69q42 0 79.5 15t66 44.5t43.5 72t15 94.5v211q0 42 12.5 79t35.5 65.5t55.5 44
t71.5 15.5h80v-354h65v-58h-121z" />
    <glyph glyph-name="uniFBFE" unicode="&#x6cc;" horiz-adv-x="237" arabic-form="initial" 
d="M205 170q0 -54 -13 -87t-39.5 -52t-64.5 -25t-88 -6q-7 0 -14 3.5t-13 9t-10 13t-4 14.5q0 9 10.5 13.5t30.5 4.5q42 0 70.5 4.5t45.5 16.5t25 33.5t8 57.5v242h56v-242zM25 -152q0 41 41 41q18 0 28.5 -10.5t10.5 -30.5t-10.5 -29.5t-28.5 -9.5q-20 0 -30.5 9t-10.5 30z
M127 -152q0 20 10.5 30.5t28.5 10.5q41 0 41 -41q0 -21 -10.5 -30t-30.5 -9q-18 0 -28.5 9.5t-10.5 29.5z" />
    <glyph glyph-name="uniFBFF" unicode="&#x6cc;" horiz-adv-x="246" arabic-form="medial" 
d="M246 0q-48 0 -77 12t-44 47h-3q-9 -17 -22 -29t-28 -18.5t-33.5 -9t-38.5 -2.5q-12 0 -26.5 12t-14.5 28q0 9 10.5 13.5t30.5 4.5q45 0 69.5 17t24.5 61v189h56v-189q0 -45 24 -61.5t72 -16.5v-58zM16 -152q0 41 41 41q18 0 28.5 -10.5t10.5 -30.5t-10.5 -29.5
t-28.5 -9.5q-20 0 -30.5 9t-10.5 30zM118 -152q0 20 10.5 30.5t28.5 10.5q41 0 41 -41q0 -21 -10.5 -30t-30.5 -9q-18 0 -28.5 9.5t-10.5 29.5z" />
    </font>
</defs>
</svg>
